Demon Slayer: Kimetsu no Yaiba

Demon Slayer: Kimetsu no Yaiba – Japão, era Taisho. Tanjiro, um bondoso jovem que ganha a vida vendendo carvão, descobre que sua família foi massacrada por um demônio. E pra piorar, Nezuko, sua irmã mais nova e única sobrevivente, também foi transformada num demônio. Arrasado com esta sombria realidade, Tanjiro decide se tornar um matador de demônios para fazer sua irmã voltar a ser humana, e para matar o demônio que matou sua família. Um triste conto sobre dois irmãos, onde os destinos dos humanos e dos demônios se entrelaçam, começa agora.

Demon Slayer: Kimetsu no Yaiba

Título Original: Kimetsu no Yaiba
Qualidade: Remux
Áudio: Dual Áudio
Legenda: Embutida (selecionável)
Tamanho: ~6.5 GB – Por Episódio

1ª Temporada – Kimetsu no Yaiba – Remux
2ª Temporada – Kimetsu no Yaiba: Trem Infinito – Remux
3ª Temporada – Kimetsu no Yaiba: Distrito do Entretenimento – Remux
4ª Temporada – Kimetsu no Yaiba: Vila dos Ferreiros – Remux

5ª Temporada – Kimetsu no Yaiba: Arco do Treinamento Hashira – WEB-DL 1080P
Temporada Completa!

“A marca surge em meu rosto e me lembra porque eu sou um Pilar”

Demon Slayer: Kimetsu no Yaiba Bluray 1080p Bluray Remux 4K UHD 2160p HDR

Spoiler

Video
ID : 1
Format : AVC
Format/Info : Advanced Video Codec
Format profile : High@L4.1
Format settings : CABAC / 4 Ref Frames
Format settings, CABAC : Yes
Format settings, Reference fra : 4 frames
Codec ID : V_MPEG4/ISO/AVC
Duration : 52 min 0 s
Bit rate mode : Variable
Bit rate : 36.6 Mb/s
Maximum bit rate : 40.0 Mb/s
Width : 1 920 pixels
Height : 1 080 pixels
Display aspect ratio : 16:9
Frame rate mode : Constant
Frame rate : 23.976 (24000/1001) FPS
Color space : YUV
Chroma subsampling : 4:2:0
Bit depth : 8 bits
Scan type : Progressive
Bits/(Pixel*Frame) : 0.737
Stream size : 13.3 GiB (98%)
Default : Yes
Forced : No

Audio #1
ID : 2
Format : AAC LC
Format/Info : Advanced Audio Codec Low Complexity
Codec ID : A_AAC-2
Duration : 51 min 59 s
Bit rate : 128 kb/s
Channel(s) : 2 channels
Channel layout : L R
Sampling rate : 44.1 kHz
Frame rate : 43.066 FPS (1024 SPF)
Compression mode : Lossy
Delay relative to video : 1 s 0 ms
Stream size : 47.6 MiB (0%)
Title : PT-BR AAC 2.0 [Crunchyroll] {Karmezyn}
Language : Portuguese
Default : Yes
Forced : No

Audio #2
ID : 4
Format : FLAC
Format/Info : Free Lossless Audio Codec
Codec ID : A_FLAC
Duration : 52 min 0 s
Bit rate mode : Variable
Bit rate : 761 kb/s
Channel(s) : 2 channels
Channel layout : L R
Sampling rate : 48.0 kHz
Frame rate : 11.719 FPS (4096 SPF)
Bit depth : 16 bits
Compression mode : Lossless
Stream size : 283 MiB (2%)
Title : JPN FLAC 2.0
Writing library : libFLAC 1.3.1 (UTC 2014-11-25)
Language : Japanese
Default : No
Forced : No
MD5 of the unencoded content : 4A3EC704B1426C5FE6D88A122A929BBF

Text #1
ID : 5
Format : ASS
Codec ID : S_TEXT/ASS
Codec ID/Info : Advanced Sub Station Alpha
Duration : 48 min 59 s
Bit rate : 19 b/s
Frame rate : 0.026 FPS
Count of elements : 75
Compression mode : Lossless
Stream size : 6.99 KiB (0%)
Title : FORCED – Eternal Animes {Karmezyn}
Language : Portuguese
Default : Yes
Forced : Yes

Text #2
ID : 6
Format : ASS
Codec ID : S_TEXT/ASS
Codec ID/Info : Advanced Sub Station Alpha
Duration : 51 min 55 s
Bit rate : 93 b/s
Frame rate : 0.220 FPS
Count of elements : 685
Compression mode : Lossless
Stream size : 35.5 KiB (0%)
Title : FULL – Eternal Animes {Karmezyn}
Language : Portuguese
Default : No
Forced : No

Text #3
ID : 7
Format : ASS
Codec ID : S_TEXT/ASS
Codec ID/Info : Advanced Sub Station Alpha
Duration : 48 min 24 s
Bit rate : 104 b/s
Frame rate : 0.217 FPS
Count of elements : 631
Compression mode : Lossless
Stream size : 37.0 KiB (0%)
Title : FULL – Crunchyroll {Karmezyn}
Language : Portuguese
Default : No
Forced : No

Menu
00:00:00.000 : Prólogo
00:00:53.095 : Abertura
00:03:05.977 : Parte A
00:13:05.994 : Parte B
00:48:40.914 : Encerramento
Karmezyn


Visite nosso fórum / Pedidos de Filmes / Pedidos de Séries

Demon Slayer: Kimetsu no Yaiba Bluray 1080p Bluray Remux 4K UHD 2160p HDR

Demon Slayer: Kimetsu no Yaiba,Kimetsu no Yaiba,baixar,download,dublado,dual audio,Karmezyn
85937

Comentários

Entrar

Não tem uma conta? Cadastre-se
Inscrever-se

Já tem uma conta? Entrar