Esquadrão Suicida: Isekai

Esquadrão Suicida: Isekai – Amanda Waller reuniu um grupo de criminosos infames para uma missão.

Esquadrão Suicida: Isekai

Título Original: Isekai Suicide Squad
Qualidade: WEB-DL 1080P
Áudio: Dual Áudio
Legenda: Embutida (selecionável)
Tamanho: ~1,3 GB – Por Episódio

1ª Temporada – Esquadrão Suicida: Isekai – WEB-DL 1080P
Atualização: 6º Episódio adicionado.

“Já pensou como seria ir para um mundo diferente desse?”

Esquadrão Suicida: Isekai Bluray 1080p Bluray Remux 4K UHD 2160p HDR

Spoiler

Video
ID : 1
Format : AVC
Format/Info : Advanced Video Codec
Format profile : High@L4
Format settings : CABAC / 4 Ref Frames
Format settings, CABAC : Yes
Format settings, Reference fra : 4 frames
Codec ID : V_MPEG4/ISO/AVC
Duration : 24 min 4 s
Bit rate mode : Constant
Bit rate : 7 640 kb/s
Nominal bit rate : 10 000 kb/s
Width : 1 920 pixels
Height : 1 080 pixels
Display aspect ratio : 16:9
Frame rate mode : Constant
Frame rate : 23.976 (24000/1001) FPS
Color space : YUV
Chroma subsampling : 4:2:0
Bit depth : 8 bits
Scan type : Progressive
Bits/(Pixel*Frame) : 0.154
Stream size : 1.28 GiB (97%)
Language : Japanese (JP)
Default : Yes
Forced : No
Color range : Limited
Color primaries : BT.709
Transfer characteristics : BT.709
Matrix coefficients : BT.709

Audio
ID : 2
Format : E-AC-3
Format/Info : Enhanced AC-3
Commercial name : Dolby Digital Plus
Codec ID : A_EAC3
Duration : 24 min 4 s
Bit rate mode : Constant
Bit rate : 224 kb/s
Channel(s) : 2 channels
Channel layout : L R
Sampling rate : 48.0 kHz
Frame rate : 31.250 FPS (1536 SPF)
Compression mode : Lossy
Stream size : 38.6 MiB (3%)
Title : Japan
Language : Japanese (JP)
Service kind : Complete Main
Default : Yes
Forced : No
Dialog Normalization : -31 dB
compr : -0.28 dB
dsurmod : Not Dolby Surround encoded
dialnorm_Average : -31 dB
dialnorm_Minimum : -31 dB
dialnorm_Maximum : -31 dB

Text #1
ID : 3
Format : UTF-8
Codec ID : S_TEXT/UTF8
Codec ID/Info : UTF-8 Plain Text
Duration : 23 min 28 s
Bit rate : 61 b/s
Frame rate : 0.231 FPS
Count of elements : 326
Stream size : 10.6 KiB (0%)
Title : Brazil
Language : Portuguese (BR)
Default : No
Forced : No

Text #2
ID : 4
Format : UTF-8
Codec ID : S_TEXT/UTF8
Codec ID/Info : UTF-8 Plain Text
Duration : 23 min 28 s
Bit rate : 65 b/s
Frame rate : 0.229 FPS
Count of elements : 323
Stream size : 11.3 KiB (0%)
Title : Latin America
Language : Spanish (Latin America)
Default : No
Forced : No
Karmezyn


Visite nosso fórum / Pedidos de Filmes / Pedidos de Séries

Esquadrão Suicida: Isekai Bluray 1080p Bluray Remux 4K UHD 2160p HDR

Esquadrão Suicida: Isekai,Isekai Suicide Squad,baixar,download,dublado,dual audio,Karmezyn
229926

Entrar

Não tem uma conta? Cadastre-se
Inscrever-se

Já tem uma conta? Entrar