baixarbluray filmes e series em hd

Fate/Zero

Fate/Zero – Uma guerra é travada a cada 10 anos para obter o Santo Graal. São invocados sete espíritos heroicos que agem como servos durante essa batalha sagrada. Emiya Kiritsugu é um dos mestres envolvidos nessa guerra, ele deseja a paz mundial, mas seus métodos para consegui-la são frios e desvirtuados.

Fate/Zero

Título Original: Fate/Zero
Qualidade: Bluray 1080p
Áudio: Japonês
Legenda: Embutida (selecionável)
Tamanho: ~3,0 GB – Por Episódio

1ª Temporada – Fate/Zero – Bluray 1080p
2ª Temporada – Fate/Zero 2nd Season – Bluray 1080p

“Seria uma derrota se eu te levasse a sério…”

Fate/Zero Bluray 1080p Bluray Remux 4K UHD 2160p HDR

Spoiler

Video
ID : 1
Format : AVC
Format/Info : Advanced Video Codec
Format profile : High 10@L5
Format settings : CABAC / 8 Ref Frames
Format settings, CABAC : Yes
Format settings, Reference fra : 8 frames
Codec ID : V_MPEG4/ISO/AVC
Duration : 24 min 47 s
Bit rate : 17.1 Mb/s
Width : 1 920 pixels
Height : 1 080 pixels
Display aspect ratio : 16:9
Frame rate mode : Constant
Frame rate : 23.976 (24000/1001) FPS
Color space : YUV
Chroma subsampling : 4:2:0
Bit depth : 10 bits
Scan type : Progressive
Bits/(Pixel*Frame) : 0.345
Stream size : 2.97 GiB (92%)
Title : BD 1080p 10bit [SCY]
Writing library : x264 core 152 r2851kMod ba24899
Encoding settings : cabac=1 / ref=8 / deblock=1:-2:-2 / analyse=0x3:0x133 / me=tesa / subme=11 / psy=1 / fade_compensate=0.00 / psy_rd=1.00:0.00 / mixed_ref=1 / me_range=32 / chroma_me=1 / trellis=2 / 8x8dct=1 / cqm=0 / deadzone=21,11 / fast_pskip=0 / chroma_qp_offset=-2 / threads=12 / lookahead_threads=3 / sliced_threads=0 / nr=0 / decimate=0 / interlaced=0 / bluray_compat=0 / constrained_intra=0 / bframes=16 / b_pyramid=2 / b_adapt=2 / b_bias=0 / direct=3 / weightb=1 / open_gop=0 / weightp=2 / keyint=240 / keyint_min=23 / scenecut=40 / intra_refresh=0 / rc=crf / mbtree=0 / crf=15.0000 / qcomp=0.72 / qpmin=0 / qpmax=81 / qpstep=4 / ip_ratio=1.40 / pb_ratio=1.30 / aq=3:0.85
Language : Japanese
Default : Yes
Forced : Yes

Audio
ID : 3
Format : FLAC
Format/Info : Free Lossless Audio Codec
Codec ID : A_FLAC
Duration : 24 min 47 s
Bit rate mode : Variable
Bit rate : 1 365 kb/s
Channel(s) : 2 channels
Sampling rate : 48.0 kHz
Frame rate : 11.719 FPS (4096 SPF)
Bit depth : 24 bits
Compression mode : Lossless
Stream size : 242 MiB (7%)
Title : Japanese 2.0 FLAC
Writing library : libFLAC 1.3.2 (UTC 2017-01-01)
Language : Japanese
Default : No
Forced : No
MD5 of the unencoded content : 8ED53CC476EB9C4580A82C9F59D18C43

Text
ID : 6
Format : ASS
Codec ID : S_TEXT/ASS
Codec ID/Info : Advanced Sub Station Alpha
Duration : 24 min 29 s
Bit rate : 103 b/s
Frame rate : 0.225 FPS
Count of elements : 330
Compression mode : Lossless
Stream size : 18.6 KiB (0%)
Title : Eternal Animes
Language : Portuguese
Default : Yes
Forced : No

Menu
00:00:00.000 : Prologue
00:03:53.733 : Part A
00:05:01.551 : Part B
00:10:03.436 : Part C
00:11:05.998 : Part D
00:14:27.575 : Part E
00:17:43.604 : Part F
00:19:41.638 : Epilogue
00:22:37.356 : Ending
Karmezyn


Visite nosso fórum / Pedidos de Filmes / Pedidos de Séries

Fate/Zero Bluray 1080p Bluray Remux 4K UHD 2160p HDR

Entrar

Não tem uma conta? Cadastre-se
Inscrever-se

Já tem uma conta? Entrar