baixarbluray filmes e series em hd

Gen V

Gen V – Alunos talentosos põem os limites morais à prova, competindo pelo melhor lugar no ranking da universidade e uma chance de se juntar aos Sete, a equipe de elite da Vought. Quando os segredos obscuros da universidade vêm à tona, eles devem decidir que tipo de heróis querem ser.

Gen V

Título Original: Gen V
Qualidade: WEB-DL 1080P / WEB-DL 2160P
Áudio: Dual Áudio
Legenda: Embutida (selecionável)
Tamanho: ~3,2 GB – Por Episódio | ~4,8 GB – Por Episódio

1ª Temporada – Gen V – WEB-DL 1080P
1ª Temporada – Gen V – WEB-DL 2160P

“Do mundo de The Boys.”

Gen V Bluray 1080p Bluray Remux 4K UHD 2160p HDR

Spoiler

Video
ID : 1
Format : AVC
Format/Info : Advanced Video Codec
Format profile : High@L4
Format settings : CABAC / 4 Ref Frames
Format settings, CABAC : Yes
Format settings, Reference fra : 4 frames
Codec ID : V_MPEG4/ISO/AVC
Duration : 38 min 49 s
Bit rate mode : Constant
Bit rate : 8 148 kb/s
Nominal bit rate : 10 000 kb/s
Width : 1 920 pixels
Height : 800 pixels
Display aspect ratio : 2.40:1
Frame rate mode : Constant
Frame rate : 23.976 (24000/1001) FPS
Color space : YUV
Chroma subsampling : 4:2:0
Bit depth : 8 bits
Scan type : Progressive
Bits/(Pixel*Frame) : 0.221
Stream size : 2.21 GiB (86%)
Default : Yes
Forced : No
Color range : Limited
Color primaries : BT.709
Transfer characteristics : BT.709
Matrix coefficients : BT.709

Gen V Bluray 1080p Bluray Remux 4K UHD 2160p HDR

Spoiler

Video
ID : 1
Format : HEVC
Format/Info : High Efficiency Video Coding
Format profile : Main@L5@Main
Codec ID : V_MPEGH/ISO/HEVC
Duration : 38 min 49 s
Bit rate : 13.2 Mb/s
Width : 3 840 pixels
Height : 1 600 pixels
Display aspect ratio : 2.40:1
Frame rate mode : Constant
Frame rate : 23.976 (24000/1001) FPS
Color space : YUV
Chroma subsampling : 4:2:0
Bit depth : 8 bits
Bits/(Pixel*Frame) : 0.090
Stream size : 3.58 GiB (91%)
Default : Yes
Forced : No
Color range : Limited
Color primaries : BT.709
Transfer characteristics : BT.709
Matrix coefficients : BT.709
Karmezyn


Visite nosso fórum / Pedidos de Filmes / Pedidos de Séries

Gen V Bluray 1080p Bluray Remux 4K UHD 2160p HDR

Entrar

Não tem uma conta? Cadastre-se
Inscrever-se

Já tem uma conta? Entrar