baixarbluray filmes e series em hd

I’m Standing on a Million Lives

I’m Standing on a Million Lives – Yusuke Yotsuya, um aluno do fundamental distante e racional, é transportado para um mundo paralelo similar a um videogame. Ao lado de suas colegas de classe Iu Shindo e Kusue Hakozaki, ele é obrigado a encarar uma perigosa missão. Yusuke é frio e calculista, examinando cada situação sem se deixar levar pelas emoções, muitas vezes brincando com a vida de seus companheiros. Será que ele conseguirá proteger seu grupo dos monstros, armadilhas e esquemas que os ameaçam, e enfim vencer o jogo?

I’m Standing on a Million Lives

Título Original: 100-man no Inochi no Ue ni Ore wa Tatteiru
Qualidade: Bluray 1080p
Áudio: Dual Áudio
Legenda: Embutida (selecionável)
Tamanho: S01 18.7 GB | S02 17.8 GB

1ª Temporada – 100-man no Inochi no Ue ni Ore wa Tatteiru – Bluray 1080p
2ª Temporada – 100-man no Inochi no Ue ni Ore wa Tatteiru – Bluray 1080p

“Ajudar as pessoas não precisa se limitar a arriscar sua vida.”

I

Spoiler

Video
ID : 1
Format : AVC
Format/Info : Advanced Video Codec
Format profile : High@L4.1
Format settings : CABAC / 4 Ref Frames
Format settings, CABAC : Yes
Format settings, Reference fra : 4 frames
Codec ID : V_MPEG4/ISO/AVC
Duration : 23 min 41 s
Bit rate : 8 900 kb/s
Width : 1 920 pixels
Height : 1 080 pixels
Display aspect ratio : 16:9
Frame rate mode : Constant
Frame rate : 23.976 (24000/1001) FPS
Color space : YUV
Chroma subsampling : 4:2:0
Bit depth : 8 bits
Scan type : Progressive
Bits/(Pixel*Frame) : 0.179
Stream size : 1.47 GiB (92%)
Writing library : x264 core 125 r2200 999b753
Encoding settings : cabac=1 / ref=4 / deblock=1:-1:-1 / analyse=0x3:0x113 / me=umh / subme=9 / psy=1 / psy_rd=1.00:0.00 / mixed_ref=1 / me_range=24 / chroma_me=1 / trellis=2 / 8x8dct=1 / cqm=0 / deadzone=21,11 / fast_pskip=1 / chroma_qp_offset=-2 / threads=18 / lookahead_threads=3 / sliced_threads=0 / nr=0 / decimate=1 / interlaced=0 / bluray_compat=0 / constrained_intra=0 / bframes=3 / b_pyramid=0 / b_adapt=2 / b_bias=0 / direct=3 / weightb=1 / open_gop=0 / weightp=2 / keyint=240 / keyint_min=23 / scenecut=40 / intra_refresh=0 / rc_lookahead=50 / rc=2pass / mbtree=1 / bitrate=8900 / ratetol=1.0 / qcomp=0.60 / qpmin=10 / qpmax=51 / qpstep=4 / cplxblur=20.0 / qblur=0.5 / vbv_maxrate=50000 / vbv_bufsize=50000 / nal_hrd=none / ip_ratio=1.40 / aq=1:1.00
Default : Yes
Forced : No

Audio #1
ID : 2
Format : AAC LC
Format/Info : Advanced Audio Codec Low Complexity
Codec ID : A_AAC-2
Duration : 23 min 40 s
Bit rate : 128 kb/s
Channel(s) : 2 channels
Channel layout : L R
Sampling rate : 44.1 kHz
Frame rate : 43.066 FPS (1024 SPF)
Compression mode : Lossy
Stream size : 21.6 MiB (1%)
Title : PT-BR AAC 2.0
Language : Portuguese
Default : Yes
Forced : No

Audio #2
ID : 3
Format : FLAC
Format/Info : Free Lossless Audio Codec
Codec ID : A_FLAC
Duration : 23 min 41 s
Bit rate mode : Variable
Bit rate : 668 kb/s
Channel(s) : 2 channels
Channel layout : L R
Sampling rate : 48.0 kHz
Frame rate : 11.719 FPS (4096 SPF)
Bit depth : 16 bits
Compression mode : Lossless
Stream size : 113 MiB (7%)
Title : JAP FLAC 2.0
Writing library : libFLAC 1.2.1 (2007-09-17)
Language : Japanese
Default : No
Forced : No
MD5 of the unencoded content : 7D7B51703BC26A6FD2BEB57A38BEE333

Text #1
ID : 4
Format : ASS
Codec ID : S_TEXT/ASS
Codec ID/Info : Advanced Sub Station Alpha
Duration : 19 min 32 s
Bit rate : 67 b/s
Frame rate : 0.064 FPS
Count of elements : 75
Compression mode : Lossless
Stream size : 9.71 KiB (0%)
Title : Crunchyroll FORCED
Language : Portuguese
Default : Yes
Forced : No

Text #2
ID : 5
Format : ASS
Codec ID : S_TEXT/ASS
Codec ID/Info : Advanced Sub Station Alpha
Duration : 23 min 20 s
Bit rate : 191 b/s
Frame rate : 0.312 FPS
Count of elements : 437
Compression mode : Lossless
Stream size : 32.7 KiB (0%)
Title : Crunchyroll FULL
Language : Portuguese
Default : No
Forced : No

Menu
00:00:00.000 : Prólogo
00:01:01.979 : Abertura
00:02:32.027 : Episódio
00:21:40.049 : Encerramento
00:23:10.014 : Epílogo
Karmezyn


Visite nosso fórum / Pedidos de Filmes / Pedidos de Séries

I

Entrar

Não tem uma conta? Cadastre-se
Inscrever-se

Já tem uma conta? Entrar