baixarbluray filmes e series em hd

Jujutsu Kaisen

Jujutsu Kaisen – Sofrimento, arrependimento, vergonha: os sentimentos negativos dos humanos tornam-se Maldições, causando terríveis acidentes que podem levar até mesmo à morte. E pra piorar, Maldições só podem ser exorcizadas por outras Maldições. Certo dia, para salvar amigos que estavam sendo atacados por Maldições, Yuji Itadori engole o dedo do Ryomen-Sukuna, absorvendo sua Maldição. Ele então decide se matricular no Colégio Técnico de Feitiçaria de Tóquio, uma organização que combate as Maldições… e assim começa a heróica lenda do garoto que tornou-se uma Maldição para exorcizar uma Maldição.

Jujutsu Kaisen

Título Original: Jujutsu Kaisen
Qualidade: Bluray 1080p Remux
Áudio: Dual Áudio
Legenda: Embutida (selecionável)
Tamanho: ~6.5 GB – Por Episódio

1ª Temporada – Jujutsu Kaisen – Remux
2ª Temporada (Finalizado) – Jujutsu Kaisen 2nd Season – Remux

“Aceitar isso que significa ser um feiticeiro amaldiçoado!”

Jujutsu Kaisen Bluray 1080p Bluray Remux 4K UHD 2160p HDR

Spoiler

Video
ID : 1
Format : AVC
Format/Info : Advanced Video Codec
Format profile : High@L4.1
Format settings : CABAC / 4 Ref Frames
Format settings, CABAC : Yes
Format settings, Reference fra : 4 frames
Codec ID : V_MPEG4/ISO/AVC
Duration : 23 min 56 s
Bit rate mode : Variable
Bit rate : 36.9 Mb/s
Maximum bit rate : 40.0 Mb/s
Width : 1 920 pixels
Height : 1 080 pixels
Display aspect ratio : 16:9
Frame rate mode : Constant
Frame rate : 23.976 (24000/1001) FPS
Color space : YUV
Chroma subsampling : 4:2:0
Bit depth : 8 bits
Scan type : Progressive
Bits/(Pixel*Frame) : 0.743
Stream size : 6.18 GiB (96%)
Default : Yes
Forced : No

Audio #1
ID : 2
Format : AAC LC
Format/Info : Advanced Audio Codec Low Complexity
Codec ID : A_AAC-2
Duration : 23 min 55 s
Bit rate : 128 kb/s
Channel(s) : 2 channels
Channel layout : L R
Sampling rate : 44.1 kHz
Frame rate : 43.066 FPS (1024 SPF)
Compression mode : Lossy
Stream size : 21.9 MiB (0%)
Title : PT-BR AAC 2.0 [Crunchyroll] {Karmezyn}
Language : Portuguese
Default : Yes
Forced : No

Audio #2
ID : 4
Format : FLAC
Format/Info : Free Lossless Audio Codec
Codec ID : A_FLAC
Duration : 23 min 56 s
Bit rate mode : Variable
Bit rate : 1 488 kb/s
Channel(s) : 2 channels
Channel layout : L R
Sampling rate : 48.0 kHz
Frame rate : 11.719 FPS (4096 SPF)
Bit depth : 24 bits
Compression mode : Lossless
Stream size : 255 MiB (4%)
Title : JPN FLAC 2.0
Writing library : libFLAC 1.3.1 (UTC 2014-11-25)
Language : Japanese
Default : No
Forced : No
MD5 of the unencoded content : AB7AEB4DD3ECAB3F9DE06127C02BE84C

Text #1
ID : 5
Format : ASS
Codec ID : S_TEXT/ASS
Codec ID/Info : Advanced Sub Station Alpha
Duration : 20 min 48 s
Bit rate : 3 b/s
Frame rate : 0.005 FPS
Count of elements : 6
Compression mode : Lossless
Stream size : 617 Bytes (0%)
Title : FORCED [Crunchyroll]
Language : Portuguese
Default : Yes
Forced : Yes

Text #2
ID : 7
Format : ASS
Codec ID : S_TEXT/ASS
Codec ID/Info : Advanced Sub Station Alpha
Duration : 23 min 46 s
Bit rate : 85 b/s
Frame rate : 0.174 FPS
Count of elements : 248
Compression mode : Lossless
Stream size : 14.9 KiB (0%)
Title : FULL [Crunchyroll]
Language : Portuguese
Default : No
Forced : No

Menu
00:00:00.000 : Prólogo
00:05:25.993 : Abertura
00:06:55.999 : Episódio
00:22:10.038 : Encerramento
00:23:40.045 : Prévia
Karmezyn


Visite nosso fórum / Pedidos de Filmes / Pedidos de Séries

Jujutsu Kaisen Bluray 1080p Bluray Remux 4K UHD 2160p HDR

Entrar

Não tem uma conta? Cadastre-se
Inscrever-se

Já tem uma conta? Entrar