baixarbluray filmes e series em hd

Kick Buttowski: Um Projeto de Dublê

Kick Buttowski: Um Projeto de Dublê – A maioria dos meninos está preocupada com a escola e os amigos, mas Kick Buttowski tem coisas mais importantes para pensar. Seu objetivo é se tornar o cara mais audacioso do mundo. Para isso, ele conta com um grande amigo e usa métodos bem incomuns.

Kick Buttowski: Um Projeto de Dublê

Título Original: Kick Buttowski: Suburban Daredevil
Qualidade: WEB-DL 1080P
Áudio: Dual Áudio
Legenda: Embutida (selecionável)
Tamanho: ~1,1 GB – Por Episódio

1ª Temporada – Kick Buttowski: Um Projeto de Dublê
2ª Temporada – Kick Buttowski: Um Projeto de Dublê
“É o Brad!!”

Kick Buttowski: Um Projeto de Dublê Bluray 1080p Bluray Remux 4K UHD 2160p HDR

Spoiler

Video
ID : 1
Format : AVC
Format/Info : Advanced Video Codec
Format profile : High@L4
Format settings : CABAC / 4 Ref Frames
Format settings, CABAC : Yes
Format settings, Reference fra : 4 frames
Codec ID : V_MPEG4/ISO/AVC
Duration : 22 min 1 s
Bit rate mode : Variable
Bit rate : 6 830 kb/s
Maximum bit rate : 12.7 Mb/s
Width : 1 920 pixels
Height : 1 080 pixels
Display aspect ratio : 16:9
Frame rate mode : Constant
Frame rate : 23.976 (24000/1001) FPS
Color space : YUV
Chroma subsampling : 4:2:0
Bit depth : 8 bits
Scan type : Progressive
Bits/(Pixel*Frame) : 0.137
Time code of first frame : 00:00:00;00
Stream size : 1.05 GiB (96%)
Language : English
Default : Yes
Forced : No
Color range : Limited
Color primaries : BT.709
Transfer characteristics : BT.709
Matrix coefficients : BT.709

Audio #1
ID : 2
Format : AAC LC
Format/Info : Advanced Audio Codec Low Complexity
Codec ID : A_AAC-2
Duration : 22 min 1 s
Bit rate : 125 kb/s
Channel(s) : 2 channels
Channel layout : L R
Sampling rate : 48.0 kHz
Frame rate : 46.875 FPS (1024 SPF)
Compression mode : Lossy
Stream size : 19.8 MiB (2%)
Title : Brazil
Language : Portuguese (BR)
Default : Yes
Forced : No

Audio #2
ID : 3
Format : AAC LC
Format/Info : Advanced Audio Codec Low Complexity
Codec ID : A_AAC-2
Duration : 22 min 1 s
Bit rate : 125 kb/s
Channel(s) : 2 channels
Channel layout : L R
Sampling rate : 48.0 kHz
Frame rate : 46.875 FPS (1024 SPF)
Compression mode : Lossy
Stream size : 19.8 MiB (2%)
Language : English
Default : No
Forced : No

Text #1
ID : 4
Format : UTF-8
Codec ID : S_TEXT/UTF8
Codec ID/Info : UTF-8 Plain Text
Duration : 20 min 19 s
Bit rate : 80 b/s
Frame rate : 0.367 FPS
Count of elements : 447
Stream size : 12.0 KiB (0%)
Language : English
Default : No
Forced : No

Text #2
ID : 5
Format : UTF-8
Codec ID : S_TEXT/UTF8
Codec ID/Info : UTF-8 Plain Text
Duration : 21 min 34 s
Bit rate : 85 b/s
Frame rate : 0.411 FPS
Count of elements : 532
Stream size : 13.5 KiB (0%)
Title : SDH
Language : English
Default : No
Forced : No

Text #3
ID : 6
Format : UTF-8
Codec ID : S_TEXT/UTF8
Codec ID/Info : UTF-8 Plain Text
Duration : 21 min 22 s
Bit rate : 73 b/s
Frame rate : 0.267 FPS
Count of elements : 342
Stream size : 11.6 KiB (0%)
Title : Hong Kong
Language : Chinese (HK)
Default : No
Forced : No

Text #4
ID : 7
Format : UTF-8
Codec ID : S_TEXT/UTF8
Codec ID/Info : UTF-8 Plain Text
Duration : 21 min 22 s
Bit rate : 73 b/s
Frame rate : 0.268 FPS
Count of elements : 343
Stream size : 11.5 KiB (0%)
Title : Traditional
Language : Chinese (Traditional)
Default : No
Forced : No

Menu
00:00:00.000 : en:Chapter 01
00:11:13.882 : en:Chapter 02
Karmezyn


Visite nosso fórum / Pedidos de Filmes / Pedidos de Séries

Kick Buttowski: Um Projeto de Dublê Bluray 1080p Bluray Remux 4K UHD 2160p HDR

Entrar

Não tem uma conta? Cadastre-se
Inscrever-se

Já tem uma conta? Entrar