baixarbluray filmes e series em hd

Max Steel

Max Steel – Max Steel é uma série de animação em computação gráfica feita pela Mattel. Anteriormente às atuais exibições em filmes, havia um seriado sobre as aventuras do personagem, que no final da 3ª Temporada foi cancelado; deixando alguns telespectadores irritados, pois o último episódio da 3ª Temporada tinha continuação.

Anualmente é feito um filme de cerca de 40 minutos sobre as aventuras de Max desde 2004, que agora a coleção está no seu sétimo filme: Max Steel X A Legião Tóxica. Max Steel é um herói fictício que tem um incrível poder e que trabalha para uma organização chamada N-Tek, que desenvolve cada vez mais, nova tecnologia. Max trabalha ao lado de Berto, Kat e agora com Cytro em sua missão para deter o mal.

Max Steel

Título Original: Max Steel
Qualidade: WEB-DL
Áudio: Dual Áudio
Legenda: Embutida (selecionável)
Tamanho: S01 16.0 GB | S02 16.3 GB | S03 11.3 GB |

1ª Temporada – Max Steel (2000) – WEB-DL 1080P
2ª Temporada – Max Steel (2000) – WEB-DL 1080P
3ª Temporada – Max Steel (2000) – WEB-DL 1080P

“Observem só a maneira de Max Steel agir!”

Max Steel Bluray 1080p Bluray Remux 4K UHD 2160p HDR

Spoiler

Video
ID : 1
Format : AVC
Format/Info : Advanced Video Codec
Format profile : High@L3.2
Format settings : CABAC / 4 Ref Frames
Format settings, CABAC : Yes
Format settings, Reference fra : 4 frames
Format settings, Slice count : 4 slices per frame
Codec ID : V_MPEG4/ISO/AVC
Duration : 19 min 56 s
Bit rate mode : Variable
Bit rate : 8 057 kb/s
Maximum bit rate : 16.0 Mb/s
Width : 1 280 pixels
Height : 720 pixels
Display aspect ratio : 4:3
Original display aspect ratio : 16:9
Frame rate mode : Constant
Frame rate : 29.970 (29970/1000) FPS
Original frame rate : 29.970 (30000/1001) FPS
Standard : NTSC
Color space : YUV
Chroma subsampling : 4:2:0
Bit depth : 8 bits
Scan type : Progressive
Bits/(Pixel*Frame) : 0.292
Stream size : 1.12 GiB (94%)
Language : English
Default : Yes
Forced : No
Color range : Limited
Color primaries : BT.709
Transfer characteristics : BT.709
Matrix coefficients : BT.709

Audio #1
ID : 2
Format : AAC LC
Format/Info : Advanced Audio Codec Low Complexity
Codec ID : A_AAC-2
Duration : 20 min 1 s
Bit rate : 128 kb/s
Channel(s) : 2 channels
Channel layout : L R
Sampling rate : 44.1 kHz
Frame rate : 43.066 FPS (1024 SPF)
Compression mode : Lossy
Delay relative to video : -22 ms
Stream size : 18.3 MiB (2%)
Title : Português BR
Language : Portuguese
Default : Yes
Forced : No

Audio #2
ID : 3
Format : AAC LC
Format/Info : Advanced Audio Codec Low Complexity
Codec ID : A_AAC-2
Duration : 19 min 56 s
Bit rate : 384 kb/s
Channel(s) : 2 channels
Channel layout : L R
Sampling rate : 48.0 kHz
Frame rate : 46.875 FPS (1024 SPF)
Compression mode : Lossy
Delay relative to video : -33 ms
Stream size : 54.9 MiB (4%)
Title : Espanhol
Language : Spanish
Default : No
Forced : No
Karmezyn


Visite nosso fórum / Pedidos de Filmes / Pedidos de Séries

Max Steel Bluray 1080p Bluray Remux 4K UHD 2160p HDR

Comentários

Entrar

Não tem uma conta? Cadastre-se
Inscrever-se

Já tem uma conta? Entrar