baixarbluray filmes e series em hd

Mushoku Tensei: Jobless Reincarnation

Mushoku Tensei: Jobless Reincarnation – Quando um fracassado de 34 anos é atropelado por um ônibus, sua história não acaba. Reencarnado em um novo mundo como criança, Rudy aproveitará cada oportunidade para viver a vida que sempre quis. Com novos amigos, habilidades mágicas e coragem para fazer tudo o que sempre sonhou, ele embarca em uma aventura épica – com toda a sua experiência do passado intacta!

Mushoku Tensei: Jobless Reincarnation

Título Original: Mushoku Tensei: Isekai Ittara Honki Dasu
Qualidade: Bluray 1080p / WEB-DL 1080P
Áudio: Dual Áudio
Legenda: Embutida (selecionável)
Tamanho: S01 16.2 GB |

1ª Temporada – Mushoku Tensei – Isekai Ittara Honki Dasu – Bluray 1080p
2ª Temporada – Mushoku Tensei II – Isekai Ittara Honki Dasu – WEB-DL 1080p
Atualizado: EP 18 dublado

“Desde tempos imemoriais, a magia tem sido a resposta dos humanos fracos para imitar a grandeza dos deuses.”

Mushoku Tensei: Jobless Reincarnation Bluray 1080p Bluray Remux 4K UHD 2160p HDR

Spoiler

Video
ID : 1
Format : HEVC
Format/Info : High Efficiency Video Coding
Format profile : Main 10@L4.1@High
Codec ID : V_MPEGH/ISO/HEVC
Duration : 23 min 41 s
Bit rate : 4 314 kb/s
Width : 1 920 pixels
Height : 1 080 pixels
Display aspect ratio : 16:9
Frame rate mode : Constant
Frame rate : 23.976 (24000/1001) FPS
Color space : YUV
Chroma subsampling : 4:2:0
Bit depth : 10 bits
Bits/(Pixel*Frame) : 0.087
Stream size : 731 MiB (90%)
Title : Presented By EMBER
Writing library : x265 2.4+14-bc0e9bd7c08f5ddc:[Windows][GCC 6.3.0][64 bit] 10bit: KG7x [x265.ru]
Encoding settings : cpuid=1050111 / frame-threads=3 / numa-pools=8 / wpp / no-pmode / no-pme / no-psnr / no-ssim / log-level=2 / input-csp=1 / input-res=1920×1080 / interlace=0 / total-frames=0 / level-idc=41 / high-tier=1 / uhd-bd=0 / ref=4 / no-allow-non-conformance / no-repeat-headers / annexb / no-aud / no-hrd / info / hash=0 / no-temporal-layers / open-gop / min-keyint=23 / keyint=250 / bframes=8 / b-adapt=2 / b-pyramid / bframe-bias=0 / rc-lookahead=80 / lookahead-slices=4 / scenecut=40 / no-intra-refresh / ctu=64 / min-cu-size=8 / rect / no-amp / max-tu-size=32 / tu-inter-depth=2 / tu-intra-depth=2 / limit-tu=4 / rdoq-level=2 / dynamic-rd=0.00 / no-ssim-rd / signhide / no-tskip / nr-intra=0 / nr-inter=0 / no-constrained-intra / strong-intra-smoothing / max-merge=3 / limit-refs=3 / limit-modes / me=3 / subme=3 / merange=57 / temporal-mvp / weightp / no-weightb / no-analyze-src-pics / deblock=0:-1 / no-sao / no-sao-non-deblock / rd=4 / no-early-skip / rskip / no-fast-intra / no-tskip-fast / no-cu-lossless / no-b-intra / rdpenalty=0 / psy-rd=0.90 / psy-rdoq=1.00 / no-rd-refine / analysis-mode=0 / no-lossless / cbqpoffs=0 / crqpoffs=0 / rc=crf / crf=20.1 / qcomp=0.80 / qpstep=4 / stats-write=0 / stats-read=0 / vbv-maxrate=50000 / vbv-bufsize=50000 / vbv-init=0.9 / crf-max=0.0 / crf-min=0.0 / ipratio=1.40 / pbratio=1.30 / aq-mode=3 / aq-strength=0.90 / cutree / zone-count=0 / no-strict-cbr / qg-size=32 / no-rc-grain / qpmax=69 / qpmin=0 / sar=0 / overscan=0 / videoformat=5 / range=0 / colorprim=1 / transfer=1 / colormatrix=1 / chromaloc=0 / display-window=0 / max-cll=0,0 / min-luma=0 / max-luma=1023 / log2-max-poc-lsb=8 / vui-timing-info / vui-hrd-info / slices=1 / opt-qp-pps / opt-ref-list-length-pps / no-multi-pass-opt-rps / scenecut-bias=0.05 / no-opt-cu-delta-qp / no-aq-motion / no-hdr / no-hdr-opt / no-dhdr10-opt / refine-level=5 / no-limit-sao / ctu-info=0
Default : Yes
Forced : No
Color range : Limited
Color primaries : BT.709
Transfer characteristics : BT.709
Matrix coefficients : BT.709

Audio #1
ID : 2
Format : Opus
Codec ID : A_OPUS
Duration : 23 min 41 s
Bit rate : 190 kb/s
Channel(s) : 2 channels
Channel layout : L R
Sampling rate : 48.0 kHz
Frame rate : 50.000 FPS (960 SPF)
Compression mode : Lossy
Stream size : 32.2 MiB (4%)
Title : JPN Opus 2.0
Writing library : Lavc59.24.100 libopus
Language : Japanese
Default : Yes
Forced : No
Description : Processed by SoX

Audio #2
ID : 3
Format : AAC LC
Format/Info : Advanced Audio Codec Low Complexity
Codec ID : A_AAC-2
Duration : 23 min 40 s
Bit rate : 256 kb/s
Channel(s) : 2 channels
Channel layout : L R
Sampling rate : 48.0 kHz
Frame rate : 46.875 FPS (1024 SPF)
Compression mode : Lossy
Stream size : 43.4 MiB (5%)
Title : PT-BR AAC 2.0
Language : Portuguese
Default : No
Forced : No

Text #1
ID : 4
Format : ASS
Codec ID : S_TEXT/ASS
Codec ID/Info : Advanced Sub Station Alpha
Duration : 23 min 34 s
Bit rate : 339 b/s
Frame rate : 0.428 FPS
Count of elements : 605
Compression mode : Lossless
Stream size : 58.7 KiB (0%)
Title : FULL [EA-Edit By Mattmurdock]
Language : Portuguese
Default : Yes
Forced : No

Text #2
ID : 5
Format : ASS
Codec ID : S_TEXT/ASS
Codec ID/Info : Advanced Sub Station Alpha
Duration : 23 min 34 s
Bit rate : 153 b/s
Frame rate : 0.283 FPS
Count of elements : 400
Compression mode : Lossless
Stream size : 26.5 KiB (0%)
Title : FULL [Eternal Animes]
Language : Portuguese
Default : No
Forced : No

Text #3
ID : 6
Format : ASS
Codec ID : S_TEXT/ASS
Codec ID/Info : Advanced Sub Station Alpha
Duration : 23 min 34 s
Bit rate : 123 b/s
Frame rate : 0.281 FPS
Count of elements : 398
Compression mode : Lossless
Stream size : 21.3 KiB (0%)
Title : FULL [Crunchyroll]
Language : Portuguese
Default : No
Forced : No

Text #4
ID : 7
Format : ASS
Codec ID : S_TEXT/ASS
Codec ID/Info : Advanced Sub Station Alpha
Duration : 23 min 34 s
Bit rate : 373 b/s
Frame rate : 0.487 FPS
Count of elements : 689
Compression mode : Lossless
Stream size : 64.6 KiB (0%)
Title : MTBB
Language : English
Default : No
Forced : No

Text #5
ID : 8
Format : ASS
Codec ID : S_TEXT/ASS
Codec ID/Info : Advanced Sub Station Alpha
Duration : 1 min 38 s
Bit rate : 2 680 b/s
Frame rate : 2.295 FPS
Count of elements : 225
Compression mode : Lossless
Stream size : 32.1 KiB (0%)
Title : FORCED [EA-Edit By Mattmurdock]
Language : Portuguese
Default : No
Forced : Yes

Text #6
ID : 9
Format : ASS
Codec ID : S_TEXT/ASS
Codec ID/Info : Advanced Sub Station Alpha
Duration : 1 min 38 s
Bit rate : 117 b/s
Frame rate : 0.204 FPS
Count of elements : 20
Compression mode : Lossless
Stream size : 1.41 KiB (0%)
Title : FORCED [Eternal Animes]
Language : Portuguese
Default : No
Forced : No

Text #7
ID : 10
Format : ASS
Codec ID : S_TEXT/ASS
Codec ID/Info : Advanced Sub Station Alpha
Duration : 1 min 38 s
Bit rate : 85 b/s
Frame rate : 0.071 FPS
Count of elements : 7
Compression mode : Lossless
Stream size : 1.02 KiB (0%)
Title : FORCED [Crunchyroll]
Language : Portuguese
Default : No
Forced : No

Menu
00:00:00.000 : Prólogo
00:02:34.029 : Parte A
00:12:20.031 : Parte B
00:22:06.116 : Abertura (Tabibito no Uta – Oohara Yuiko)
00:23:36.040 : Prévia
Karmezyn


Visite nosso fórum / Pedidos de Filmes / Pedidos de Séries

Mushoku Tensei: Jobless Reincarnation Bluray 1080p Bluray Remux 4K UHD 2160p HDR

Mushoku Tensei: Jobless Reincarnation,Mushoku Tensei: Isekai Ittara Honki Dasu,baixar,download,dublado,dual audio,Karmezyn
94664

Entrar

Não tem uma conta? Cadastre-se
Inscrever-se

Já tem uma conta? Entrar