baixarbluray filmes e series em hd

Ninja Kamui

Ninja Kamui – Um ex-membro de um clã ninja desistiu para viver uma vida tranquila com sua esposa e filho. Uma noite, sua família morre após ser atacada por uma organização misteriosa. O homem é torturado pelas consequências.

Ninja Kamui

Título Original: Ninja Kamui
Qualidade: WEB-DL 1080P
Áudio: Dual Áudio
Legenda: Embutida (selecionável)
Tamanho: S01 12.8 GB |

1ª Temporada – Ninja Kamui – WEB-DL 1080P

“Ele terá sua vingança.”

Ninja Kamui Bluray 1080p Bluray Remux 4K UHD 2160p HDR

Spoiler

Video
ID : 1
Format : AVC
Format/Info : Advanced Video Codec
Format profile : High@L4
Format settings : CABAC / 4 Ref Frames
Format settings, CABAC : Yes
Format settings, Reference fra : 4 frames
Codec ID : V_MPEG4/ISO/AVC
Duration : 23 min 21 s
Bit rate mode : Constant
Bit rate : 5 477 kb/s
Nominal bit rate : 10 000 kb/s
Width : 1 920 pixels
Height : 1 080 pixels
Display aspect ratio : 16:9
Frame rate mode : Constant
Frame rate : 29.970 (30000/1001) FPS
Color space : YUV
Chroma subsampling : 4:2:0
Bit depth : 8 bits
Scan type : Progressive
Bits/(Pixel*Frame) : 0.088
Stream size : 915 MiB (92%)
Language : English (US)
Default : Yes
Forced : No
Color range : Limited
Color primaries : BT.709
Transfer characteristics : BT.709
Matrix coefficients : BT.709

Audio #1
ID : 2
Format : E-AC-3
Format/Info : Enhanced AC-3
Commercial name : Dolby Digital Plus
Codec ID : A_EAC3
Duration : 23 min 21 s
Bit rate mode : Constant
Bit rate : 224 kb/s
Channel(s) : 2 channels
Channel layout : L R
Sampling rate : 48.0 kHz
Frame rate : 31.250 FPS (1536 SPF)
Compression mode : Lossy
Stream size : 37.4 MiB (4%)
Title : Brazil
Language : Portuguese (BR)
Service kind : Complete Main
Default : Yes
Forced : No

Audio #2
ID : 3
Format : E-AC-3
Format/Info : Enhanced AC-3
Commercial name : Dolby Digital Plus
Codec ID : A_EAC3
Duration : 23 min 21 s
Bit rate mode : Constant
Bit rate : 224 kb/s
Channel(s) : 2 channels
Channel layout : L R
Sampling rate : 48.0 kHz
Frame rate : 31.250 FPS (1536 SPF)
Compression mode : Lossy
Stream size : 37.4 MiB (4%)
Title : Japan
Language : Japanese (JP)
Service kind : Complete Main
Default : No
Forced : No

Text #1
ID : 4
Format : UTF-8
Codec ID : S_TEXT/UTF8
Codec ID/Info : UTF-8 Plain Text
Duration : 22 min 51 s
Bit rate : 60 b/s
Frame rate : 0.181 FPS
Count of elements : 248
Stream size : 10.1 KiB (0%)
Title : Brazil
Language : Portuguese (BR)
Default : No
Forced : No

Text #2
ID : 5
Format : UTF-8
Codec ID : S_TEXT/UTF8
Codec ID/Info : UTF-8 Plain Text
Duration : 22 min 52 s
Bit rate : 58 b/s
Frame rate : 0.190 FPS
Count of elements : 261
Stream size : 9.74 KiB (0%)
Language : English (US)
Default : No
Forced : No

Text #3
ID : 6
Format : UTF-8
Codec ID : S_TEXT/UTF8
Codec ID/Info : UTF-8 Plain Text
Duration : 22 min 51 s
Bit rate : 57 b/s
Frame rate : 0.164 FPS
Count of elements : 225
Stream size : 9.66 KiB (0%)
Title : Latin America
Language : Spanish (Latin America)
Default : No
Forced : No
Karmezyn


Visite nosso fórum / Pedidos de Filmes / Pedidos de Séries

Ninja Kamui Bluray 1080p Bluray Remux 4K UHD 2160p HDR

Entrar

Não tem uma conta? Cadastre-se
Inscrever-se

Já tem uma conta? Entrar