baixarbluray filmes e series em hd

O Clube Das Winx

O Clube Das Winx – A historia original de linha, foi produzida pela Rainbow S.r.l, e que se concentrou principalmente na história de Bloom. A série passou por um reboot depois da Rainbow S.r.l confirmar parceria com a Nickelodeon, em que a primeira e segunda temporadas foram compactados em quatro episódios de um especial de uma hora, e a terceira e quarta temporadas foram apelidados de “novo”, após a história original, embora com pequenas diferenças. Na versão da 4Kids, a série não foi muito editada e muitas vezes havia erros no enredo original, incluindo mudanças de nome (como o nome original do planeta de Bloom, Domino que foi substituído por Sparks na versão da 4Kids), como mudanças no papel de personagens (como Daphne, irmã mais velha de Bloom, cujo papel era alterado para o de ser apenas uma ninfa protegendo o poderoso Fogo do Dragão, pela 4Kids) e mudanças na personalidade dos personagens: Tecna foi dado um sotaque britânico e Musa foi dada uma personalidade hip-hopper pela 4Kids

O Clube Das Winx

Título Original: Winx Club
Qualidade: WEB-DL 2160P
Áudio: Dual Áudio
Legenda: Embutida (selecionável)
Tamanho: ~1GB – Por Episódio

1ª Temporada – O Clube Das Winx – WEB-DL 2160P

O Clube Das Winx Bluray 1080p Bluray Remux 4K UHD 2160p HDR

Spoiler

Video
ID : 1
Format : AVC
Format/Info : Advanced Video Codec
Format profile : High@L4
Format settings : CABAC / 4 Ref Frames
Format settings, CABAC : Yes
Format settings, Reference fra : 4 frames
Codec ID : V_MPEG4/ISO/AVC
Duration : 22 min 20 s
Bit rate : 6 000 kb/s
Width : 2 880 pixels
Height : 2 160 pixels
Display aspect ratio : 4:3
Frame rate mode : Constant
Frame rate : 25.000 FPS
Color space : YUV
Chroma subsampling : 4:2:0
Bit depth : 8 bits
Scan type : Progressive
Bits/(Pixel*Frame) : 0.039
Stream size : 961 MiB (96%)
Writing library : x264 core 164 r3095M baee400
Encoding settings : cabac=1 / ref=1 / deblock=1:2:2 / analyse=0x3:0x133 / me=umh / subme=10 / psy=1 / psy_rd=0.40:0.00 / mixed_ref=0 / me_range=24 / chroma_me=1 / trellis=2 / 8x8dct=1 / cqm=0 / deadzone=21,11 / fast_pskip=1 / chroma_qp_offset=-2 / threads=24 / lookahead_threads=6 / sliced_threads=0 / nr=0 / decimate=1 / interlaced=0 / bluray_compat=0 / constrained_intra=0 / bframes=10 / b_pyramid=2 / b_adapt=2 / b_bias=0 / direct=3 / weightb=1 / open_gop=0 / weightp=2 / keyint=250 / keyint_min=25 / scenecut=40 / intra_refresh=0 / rc_lookahead=60 / rc=2pass / mbtree=1 / bitrate=6000 / ratetol=1.0 / qcomp=0.60 / qpmin=0 / qpmax=69 / qpstep=4 / cplxblur=20.0 / qblur=0.5 / ip_ratio=1.40 / aq=1:0.60
Default : Yes
Forced : No
Color range : Limited
Color primaries : BT.709
Transfer characteristics : BT.709
Matrix coefficients : BT.709

Audio #1
ID : 2
Format : AAC LC SBR
Format/Info : Advanced Audio Codec Low Complexity with Spectral Band Replication
Commercial name : HE-AAC
Format settings : Implicit
Codec ID : A_AAC-2
Duration : 22 min 23 s
Bit rate : 128 kb/s
Channel(s) : 2 channels
Channel layout : L R
Sampling rate : 48.0 kHz
Frame rate : 23.438 FPS (2048 SPF)
Compression mode : Lossy
Stream size : 20.5 MiB (2%)
Language : Portuguese
Default : Yes
Forced : Yes

Audio #2
ID : 3
Format : AAC LC SBR
Format/Info : Advanced Audio Codec Low Complexity with Spectral Band Replication
Commercial name : HE-AAC
Format settings : Implicit
Codec ID : A_AAC-2
Duration : 22 min 23 s
Bit rate : 128 kb/s
Channel(s) : 2 channels
Channel layout : L R
Sampling rate : 48.0 kHz
Frame rate : 23.438 FPS (2048 SPF)
Compression mode : Lossy
Stream size : 20.5 MiB (2%)
Language : English
Default : No
Forced : No
Karmezyn


Visite nosso fórum / Pedidos de Filmes / Pedidos de Séries

O Clube Das Winx Bluray 1080p Bluray Remux 4K UHD 2160p HDR

Entrar

Não tem uma conta? Cadastre-se
Inscrever-se

Já tem uma conta? Entrar