Street Fighter: Punho Assassino

Street Fighter: Punho Assassino – Ryu e Ken são os últimos praticantes da arte marcial chamada Ansatsuken – Punho do Assassino. Juntos, eles aprendem sobre o misterioso passado do mestre Goken e o trágico legado do estilo Ansatsuken.

Street Fighter: Punho Assassino

Título Original: Street Fighter: Assassin’s Fist
Qualidade: Bluray 1080p / WEB-DL 1080P
Áudio: Dual Áudio
Legenda: Embutida (selecionável)
Tamanho: S01 6.6 GB |

Temporada Completa – Street Fighter: Punho Assassino – Bluray 1080p/ WEB-DL 1080P

“Orientado pela fúria, posso causar um desastre.”

Street Fighter:  Punho Assassino Bluray 1080p Bluray Remux 4K UHD 2160p HDR

Spoiler

Video
ID : 1
Format : AVC
Format/Info : Advanced Video Codec
Format profile : Main@L4
Format settings : CABAC / 4 Ref Frames
Format settings, CABAC : Yes
Format settings, Reference fra : 4 frames
Codec ID : V_MPEG4/ISO/AVC
Duration : 2 h 26 min
Bit rate : 3 000 kb/s
Width : 1 920 pixels
Height : 800 pixels
Display aspect ratio : 2.40:1
Original display aspect ratio : 2.40:1
Frame rate mode : Constant
Frame rate : 25.000 FPS
Color space : YUV
Chroma subsampling : 4:2:0
Bit depth : 8 bits
Scan type : Progressive
Bits/(Pixel*Frame) : 0.078
Stream size : 3.06 GiB (64%)
Writing library : x264 core 130 r2273 b3065e6
Encoding settings : cabac=1 / ref=1 / deblock=1:0:0 / analyse=0x1:0x111 / me=hex / subme=2 / psy=1 / psy_rd=1.00:0.00 / mixed_ref=0 / me_range=16 / chroma_me=1 / trellis=0 / 8x8dct=0 / cqm=0 / deadzone=21,11 / fast_pskip=1 / chroma_qp_offset=0 / threads=12 / lookahead_threads=4 / sliced_threads=0 / nr=0 / decimate=1 / interlaced=0 / bluray_compat=0 / constrained_intra=0 / bframes=3 / b_pyramid=2 / b_adapt=1 / b_bias=0 / direct=1 / weightb=1 / open_gop=0 / weightp=1 / keyint=250 / keyint_min=25 / scenecut=40 / intra_refresh=0 / rc_lookahead=10 / rc=2pass / mbtree=1 / bitrate=3000 / ratetol=1.0 / qcomp=0.60 / qpmin=0 / qpmax=69 / qpstep=4 / cplxblur=20.0 / qblur=0.5 / vbv_maxrate=20000 / vbv_bufsize=25000 / nal_hrd=none / ip_ratio=1.40 / aq=1:1.00
Language : English
Default : Yes
Forced : No
Color range : Limited
Color primaries : BT.709
Transfer characteristics : BT.709
Matrix coefficients : BT.709

Audio #1
ID : 2
Format : AC-3
Format/Info : Audio Coding 3
Commercial name : Dolby Digital
Codec ID : A_AC3
Duration : 2 h 26 min
Bit rate mode : Constant
Bit rate : 192 kb/s
Channel(s) : 2 channels
Channel layout : L R
Sampling rate : 48.0 kHz
Frame rate : 31.250 FPS (1536 SPF)
Compression mode : Lossy
Stream size : 201 MiB (4%)
Title : Português-BR – Lexx
Language : Portuguese
Service kind : Complete Main
Default : Yes
Forced : No
Dialog Normalization : -27 dB
compr : -0.28 dB
dialnorm_Average : -27 dB
dialnorm_Minimum : -27 dB
dialnorm_Maximum : -27 dB

Audio #2
ID : 3
Format : DTS
Format/Info : Digital Theater Systems
Codec ID : A_DTS
Duration : 2 h 26 min
Bit rate mode : Constant
Bit rate : 1 509 kb/s
Channel(s) : 6 channels
Channel layout : C L R Ls Rs LFE
Sampling rate : 48.0 kHz
Frame rate : 93.750 FPS (512 SPF)
Bit depth : 16 bits
Compression mode : Lossy
Stream size : 1.54 GiB (32%)
Title : Inglês
Language : English
Default : No
Forced : No

Text #1
ID : 4
Format : ASS
Codec ID : S_TEXT/ASS
Codec ID/Info : Advanced Sub Station Alpha
Duration : 2 h 25 min
Bit rate : 26 b/s
Frame rate : 0.060 FPS
Count of elements : 521
Compression mode : Lossless
Stream size : 28.5 KiB (0%)
Title : Português-BR – Cortes
Language : Portuguese
Default : Yes
Forced : No

Text #2
ID : 5
Format : UTF-8
Codec ID : S_TEXT/UTF8
Codec ID/Info : UTF-8 Plain Text
Duration : 2 h 26 min
Bit rate : 55 b/s
Frame rate : 0.195 FPS
Count of elements : 1711
Stream size : 59.0 KiB (0%)
Title : Português-BR – KBO
Language : Portuguese
Default : No
Forced : No

Menu
00:00:00.000 : Chapter 1
00:23:10.480 : Chapter 2
00:43:56.160 : Chapter 3
01:06:18.000 : Chapter 4
01:27:56.600 : Chapter 5
01:50:15.280 : Chapter 6
02:12:29.080 : Chapter 7
Karmezyn


Visite nosso fórum / Pedidos de Filmes / Pedidos de Séries

Street Fighter:  Punho Assassino Bluray 1080p Bluray Remux 4K UHD 2160p HDR

Comentários

Entrar

Não tem uma conta? Cadastre-se
Inscrever-se

Já tem uma conta? Entrar