The Acolyte

Cem anos antes da ascensão do Império, a Ordem Jedi e a República Galáctica prosperaram sem guerras durante séculos. Durante esse tempo, uma investigação sobre uma terrível onda de crimes coloca uma Mestra Jedi contra uma perigosa guerreira de seu passado.

The Acolyte – Cem anos antes da ascensão do Império, a Ordem Jedi e a República Galáctica prosperaram sem guerras durante séculos. Durante esse tempo, uma investigação sobre uma terrível onda de crimes coloca uma Mestra Jedi contra uma perigosa guerreira de seu passado.

The Acolyte

Título Original: The Acolyte
Qualidade: WEB-DL 1080P
Áudio: Dual Áudio
Legenda: Embutida (selecionável)
Tamanho: ~2,0 GB – Por Episódio

1ª Temporada – The Acolyte – WEB-DL 1080P
1ª Temporada – The Acolyte – WEB-DL 2160P
Atualizado: Temporada Completa!
“Numa era de luz, a escuridão ressurge.”

The Acolyte Bluray 1080p Bluray Remux 4K UHD 2160p HDR

Spoiler

Video
ID : 1
Format : AVC
Format/Info : Advanced Video Codec
Format profile : High@L4
Format settings : CABAC / 4 Ref Frames
Format settings, CABAC : Yes
Format settings, Reference fra : 4 frames
Codec ID : V_MPEG4/ISO/AVC
Duration : 40 min 56 s
Bit rate mode : Variable
Bit rate : 5 602 kb/s
Maximum bit rate : 12.7 Mb/s
Width : 1 920 pixels
Height : 1 080 pixels
Display aspect ratio : 16:9
Frame rate mode : Constant
Frame rate : 24.000 FPS
Color space : YUV
Chroma subsampling : 4:2:0
Bit depth : 8 bits
Scan type : Progressive
Bits/(Pixel*Frame) : 0.113
Time code of first frame : 00:00:00;00
Stream size : 1.60 GiB (85%)
Language : Portuguese (BR)
Default : Yes
Forced : No
Color range : Limited
Color primaries : BT.709
Transfer characteristics : BT.709
Matrix coefficients : BT.709

Audio #1
ID : 2
Format : E-AC-3
Format/Info : Enhanced AC-3
Commercial name : Dolby Digital Plus
Codec ID : A_EAC3
Duration : 40 min 56 s
Bit rate mode : Constant
Bit rate : 256 kb/s
Channel(s) : 6 channels
Channel layout : L R C LFE Ls Rs
Sampling rate : 48.0 kHz
Frame rate : 31.250 FPS (1536 SPF)
Compression mode : Lossy
Stream size : 75.0 MiB (4%)
Title : Brazil
Language : Portuguese (BR)
Service kind : Complete Main
Default : Yes
Forced : No

Audio #2
ID : 3
Format : E-AC-3 JOC
Format/Info : Enhanced AC-3 with Joint Object Coding
Commercial name : Dolby Digital Plus with Dolby Atmos
Codec ID : A_EAC3
Duration : 40 min 47 s
Bit rate mode : Constant
Bit rate : 768 kb/s
Channel(s) : 6 channels
Channel layout : L R C LFE Ls Rs
Sampling rate : 48.0 kHz
Frame rate : 31.250 FPS (1536 SPF)
Compression mode : Lossy
Stream size : 224 MiB (12%)
Language : English
Service kind : Complete Main
Default : No
Forced : No
Complexity index : 16
Number of dynamic objects : 15
Bed channel count : 1 channel
Bed channel configuration : LFE

Text #1
ID : 4
Format : UTF-8
Codec ID : S_TEXT/UTF8
Codec ID/Info : UTF-8 Plain Text
Duration : 39 min 18 s
Bit rate : 33 b/s
Frame rate : 0.134 FPS
Count of elements : 315
Stream size : 9.78 KiB (0%)
Title : Brazil
Language : Portuguese (BR)
Default : No
Forced : No

Text #2
ID : 5
Format : UTF-8
Codec ID : S_TEXT/UTF8
Codec ID/Info : UTF-8 Plain Text
Duration : 36 min 51 s
Bit rate : 44 b/s
Frame rate : 0.221 FPS
Count of elements : 489
Stream size : 11.9 KiB (0%)
Title : Brazil (SDH)
Language : Portuguese (BR)
Default : No
Forced : No

Text #3
ID : 6
Format : UTF-8
Codec ID : S_TEXT/UTF8
Codec ID/Info : UTF-8 Plain Text
Duration : 21 s 541 ms
Bit rate : 115 b/s
Frame rate : 0.232 FPS
Count of elements : 5
Stream size : 311 Bytes (0%)
Title : Forced
Language : English
Default : No
Forced : Yes

Text #4
ID : 7
Format : UTF-8
Codec ID : S_TEXT/UTF8
Codec ID/Info : UTF-8 Plain Text
Duration : 36 min 30 s
Bit rate : 35 b/s
Frame rate : 0.150 FPS
Count of elements : 328
Stream size : 9.57 KiB (0%)
Language : English
Default : No
Forced : No

Text #5
ID : 8
Format : UTF-8
Codec ID : S_TEXT/UTF8
Codec ID/Info : UTF-8 Plain Text
Duration : 36 min 37 s
Bit rate : 51 b/s
Frame rate : 0.227 FPS
Count of elements : 499
Stream size : 13.7 KiB (0%)
Title : SDH
Language : English
Default : No
Forced : No

Menu
00:00:00.000 : en:Chapter 01
00:07:21.000 : en:Intro Start
00:07:30.333 : en:Chapter 03
00:15:46.500 : en:Chapter 04
00:31:34.667 : en:Chapter 05
00:36:59.917 : en:Credits
Karmezyn


Visite nosso fórum / Pedidos de Filmes / Pedidos de Séries

The Acolyte Bluray 1080p Bluray Remux 4K UHD 2160p HDR

The Acolyte,The Acolyte,baixar,download,dublado,dual audio,Karmezyn
114479

Entrar

Não tem uma conta? Cadastre-se
Inscrever-se

Já tem uma conta? Entrar