baixarbluray filmes e series em hd

The Boys

The Boys – Na trama, conhecemos um mundo em que super-heróis são as maiores celebridades do planeta, e rotineiramente abusam dos seus poderes ao invés de os usarem para o bem.

The Boys

Título Original: The Boys
Qualidade: Bluray 1080P / REMUX / 4K 2160P HDR-U V2
Áudio: Dual Áudio
Legenda: Embutida (selecionável)
Tamanho: ~4,0 GB – Por Episódio | ~10,0 GB – Por Episódio | ~25,0 GB – Por Episódio

1ª Temporada – The Boys – Bluray 1080p
1ª Temporada – The Boys – REMUX
1ª Temporada – The Boys – 4K 2160P HDR-U V2

2ª Temporada – The Boys – Bluray 1080p
2ª Temporada – The Boys – REMUX
2ª Temporada – The Boys – 4K 2160P HDR-U V2

3ª Temporada – The Boys – Bluray 1080p
3ª Temporada – The Boys – REMUX

4ª Temporada – The Boys – WEB-DL 1080P
Atualizado: 3º Episódio da Quarta temporada

“Eu nivelei a porra do jogo.”

The Boys Bluray 1080p Bluray Remux 4K UHD 2160p HDR

Spoiler

Video
ID : 1
Format : HEVC
Format/Info : High Efficiency Video Coding
Format profile : Main 10@L4@High
Codec ID : V_MPEGH/ISO/HEVC
Duration : 1 h 0 min
Bit rate : 6 962 kb/s
Width : 1 920 pixels
Height : 1 080 pixels
Display aspect ratio : 16:9
Frame rate mode : Constant
Frame rate : 23.976 (24000/1001) FPS
Color space : YUV
Chroma subsampling : 4:2:0
Bit depth : 10 bits
Bits/(Pixel*Frame) : 0.140
Stream size : 2.95 GiB (73%)
Default : Yes
Forced : No
Color range : Limited
Color primaries : BT.709
Transfer characteristics : BT.709
Matrix coefficients : BT.709

The Boys Bluray 1080p Bluray Remux 4K UHD 2160p HDR

Spoiler

Video
ID : 1
ID in the original source medi : 4113 (0x1011)
Format : AVC
Format/Info : Advanced Video Codec
Format profile : High@L4.1
Format settings : CABAC / 4 Ref Frames
Format settings, CABAC : Yes
Format settings, Reference fra : 4 frames
Format settings, Slice count : 4 slices per frame
Codec ID : V_MPEG4/ISO/AVC
Duration : 1 h 0 min
Bit rate mode : Variable
Bit rate : 21.8 Mb/s
Maximum bit rate : 33.0 Mb/s
Width : 1 920 pixels
Height : 1 080 pixels
Display aspect ratio : 16:9
Frame rate mode : Constant
Frame rate : 23.976 (24000/1001) FPS
Color space : YUV
Chroma subsampling : 4:2:0
Bit depth : 8 bits
Scan type : Progressive
Bits/(Pixel*Frame) : 0.438
Time code of first frame : 00:59:59:00
Stream size : 9.22 GiB (90%)
Title : The.Boys.S03E01.Payback.1080p.Blu-ray.Remux.AVC.DTS-HD.MA.5.1-SiCFoI
Default : Yes
Forced : No
Original source medium : Blu-ray
Karmezyn

The Boys Bluray 1080p Bluray Remux 4K UHD 2160p HDR

Spoiler

Video
ID : 1
Format : HEVC
Format/Info : High Efficiency Video Coding
Format profile : Main 10@L5.1@High
HDR format : SMPTE ST 2086, HDR10 compatible
Codec ID : V_MPEGH/ISO/HEVC
Duration : 59 min 58 s
Bit rate : 59.7 Mb/s
Width : 3 840 pixels
Height : 2 160 pixels
Display aspect ratio : 16:9
Frame rate mode : Constant
Frame rate : 23.976 (24000/1001) FPS
Color space : YUV
Chroma subsampling : 4:2:0
Bit depth : 10 bits
Bits/(Pixel*Frame) : 0.300
Stream size : 25.0 GiB (94%)
Title : BaixarBluray.net – Alta Definição é Aqui!
Language : English
Default : Yes
Forced : Yes
Color range : Limited
Color primaries : BT.2020
Transfer characteristics : PQ
Matrix coefficients : BT.2020 constant
Mastering display color primar : Display P3
Mastering display luminance : min: 0.0500 cd/m2, max: 1000 cd/m2
Maximum Content Light Level : 1000 cd/m2
Maximum Frame-Average Light Le : 400 cd/m2


Visite nosso fórum / Pedidos de Filmes / Pedidos de Séries

The Boys Bluray 1080p Bluray Remux 4K UHD 2160p HDR

The Boys,The Boys,baixar,download,dublado,dual audio,Karmezyn
76479

Entrar

Não tem uma conta? Cadastre-se
Inscrever-se

Já tem uma conta? Entrar