baixarbluray filmes e series em hd

Violet Evergarden

Violet Evergarden – A guerra acabou, e Violet Evergarden precisa de trabalho. Cheia de cicatrizes, ela aceita trabalhar como escritora de cartas para entender a si mesma e seu passado.

Violet Evergarden

Título Original: Violet Evergarden
Qualidade: Bluray 1080p
Áudio: Dual Áudio
Legenda: Embutida (selecionável)
Tamanho: S01 13.7 GB |

1ª Temporada – Violet Evergarden – Bluray 1080p

“Quero saber o que significa “Eu te amo”.”

Violet Evergarden Bluray 1080p Bluray Remux 4K UHD 2160p HDR

Spoiler

Video
ID : 1
Format : HEVC
Format/Info : High Efficiency Video Coding
Format profile : Main 10@L4@Main
Codec ID : V_MPEGH/ISO/HEVC
Duration : 34 min 51 s
Bit rate : 3 161 kb/s
Width : 1 920 pixels
Height : 1 080 pixels
Display aspect ratio : 16:9
Frame rate mode : Constant
Frame rate : 23.976 (24000/1001) FPS
Color space : YUV
Chroma subsampling : 4:2:0
Bit depth : 10 bits
Bits/(Pixel*Frame) : 0.064
Stream size : 788 MiB (61%)
Title : By Punisher694
Writing library : x265 2.9+1-169e76b6bbcc:[Windows][GCC 8.2.0][64 bit] 10bit
Encoding settings : cpuid=1111039 / frame-threads=4 / numa-pools=16 / wpp / no-pmode / no-pme / no-psnr / no-ssim / log-level=2 / input-csp=1 / input-res=1920×1080 / interlace=0 / total-frames=50134 / level-idc=0 / high-tier=1 / uhd-bd=0 / ref=5 / no-allow-non-conformance / no-repeat-headers / annexb / no-aud / no-hrd / info / hash=0 / no-temporal-layers / open-gop / min-keyint=23 / keyint=250 / gop-lookahead=0 / bframes=8 / b-adapt=2 / b-pyramid / bframe-bias=0 / rc-lookahead=60 / lookahead-slices=0 / scenecut=40 / radl=0 / no-intra-refresh / ctu=64 / min-cu-size=8 / rect / amp / max-tu-size=32 / tu-inter-depth=3 / tu-intra-depth=3 / limit-tu=4 / rdoq-level=2 / dynamic-rd=0.00 / no-ssim-rd / signhide / no-tskip / nr-intra=0 / nr-inter=0 / no-constrained-intra / strong-intra-smoothing / max-merge=4 / limit-refs=1 / limit-modes / me=3 / subme=4 / merange=57 / temporal-mvp / weightp / weightb / no-analyze-src-pics / deblock=1:-1 / sao / no-sao-non-deblock / rd=5 / no-early-skip / rskip / no-fast-intra / no-tskip-fast / no-cu-lossless / b-intra / no-splitrd-skip / rdpenalty=0 / psy-rd=0.90 / psy-rdoq=1.40 / no-rd-refine / no-lossless / cbqpoffs=0 / crqpoffs=0 / rc=crf / crf=17.0 / qcomp=0.60 / qpstep=4 / stats-write=0 / stats-read=0 / ipratio=1.40 / pbratio=1.30 / aq-mode=3 / aq-strength=1.00 / cutree / zone-count=0 / no-strict-cbr / qg-size=32 / no-rc-grain / qpmax=59 / qpmin=0 / no-const-vbv / sar=1 / overscan=0 / videoformat=5 / range=0 / colorprim=2 / transfer=2 / colormatrix=2 / chromaloc=0 / display-window=0 / max-cll=0,0 / min-luma=0 / max-luma=1023 / log2-max-poc-lsb=8 / vui-timing-info / vui-hrd-info / slices=1 / no-opt-qp-pps / no-opt-ref-list-length-pps / no-multi-pass-opt-rps / scenecut-bias=0.05 / no-opt-cu-delta-qp / no-aq-motion / no-hdr / no-hdr-opt / no-dhdr10-opt / no-idr-recovery-sei / analysis-reuse-level=5 / scale-factor=0 / refine-intra=0 / refine-inter=0 / refine-mv=0 / no-limit-sao / ctu-info=0 / no-lowpass-dct / refine-mv-type=0 / copy-pic=1 / max-ausize-factor=1.0 / no-dynamic-refine / no-single-sei
Default : Yes
Forced : No

Audio #1
ID : 2
Format : FLAC
Format/Info : Free Lossless Audio Codec
Codec ID : A_FLAC
Duration : 34 min 13 s
Bit rate mode : Variable
Bit rate : 597 kb/s
Channel(s) : 2 channels
Channel layout : L R
Sampling rate : 48.0 kHz
Frame rate : 11.719 FPS (4096 SPF)
Bit depth : 16 bits
Compression mode : Lossless
Stream size : 146 MiB (11%)
Title : Dublagem [Netflix] By Mattmurdock
Writing library : libFLAC 1.3.2 (2019-08-04)
Language : Portuguese
Default : Yes
Forced : Yes
MD5 of the unencoded content : 014428959700FA974B23CCB05B7F949A

Audio #2
ID : 5
Format : FLAC
Format/Info : Free Lossless Audio Codec
Codec ID : A_FLAC
Duration : 34 min 13 s
Bit rate mode : Variable
Bit rate : 1 381 kb/s
Channel(s) : 2 channels
Channel layout : L R
Sampling rate : 48.0 kHz
Frame rate : 11.719 FPS (4096 SPF)
Bit depth : 24 bits
Compression mode : Lossless
Stream size : 338 MiB (26%)
Title : Japonês
Writing library : libFLAC 1.3.2 (2017-01-01)
Language : Japanese
Default : No
Forced : No
MD5 of the unencoded content : 75DCFB0565C9890CD0B6DBAED395228B

Text #1
ID : 6
Format : ASS
Codec ID : S_TEXT/ASS
Codec ID/Info : Advanced Sub Station Alpha
Duration : 32 min 34 s
Bit rate : 12.6 kb/s
Frame rate : 6.855 FPS
Count of elements : 13396
Compression mode : Lossless
Stream size : 2.93 MiB (0%)
Title : ptBR FORCED [Aenianos & Hacchi Fansub]
Language : Portuguese
Default : Yes
Forced : Yes

Text #2
ID : 7
Format : ASS
Codec ID : S_TEXT/ASS
Codec ID/Info : Advanced Sub Station Alpha
Duration : 32 min 47 s
Bit rate : 12.6 kb/s
Frame rate : 7.001 FPS
Count of elements : 13777
Compression mode : Lossless
Stream size : 2.95 MiB (0%)
Title : ptBR FULL [Aenianos & Hacchi Fansub]
Language : Portuguese
Default : No
Forced : No

Menu
00:00:00.000 : en:Introdução
00:01:38.098 : en:Abertura
00:03:08.188 : en:Parte A
00:14:58.898 : en:Parte B
00:32:43.962 : en:Encerramento
Karmezyn


Visite nosso fórum / Pedidos de Filmes / Pedidos de Séries

Violet Evergarden Bluray 1080p Bluray Remux 4K UHD 2160p HDR

Entrar

Não tem uma conta? Cadastre-se
Inscrever-se

Já tem uma conta? Entrar