baixarbluray filmes e series em hd

Yashahime: Princess Half-Demon

Yashahime: Princess Half-Demon – No Japão feudal, um incêndio florestal separa as gêmeas meio-youkai Towa e Setsuna. Em busca de sua irmã, Towa acaba entrando num misterioso túnel que a leva para o Japão moderno, onde ela é criada por Sota, irmão de Agome Higurashi. Dez anos depois, o túnel que conecta as duas eras se reabre, permitindo que Towa reencontre sua irmã, que tornou-se uma caçadora de youkai a serviço de Kohaku. Para espanto de Towa, Setsuna parece ter se esquecido completamente ela. Junto de Moroha, filha de Inuyasha e Agome, as três jovens viajam pelas eras numa aventura para reaver seu passado perdido.

Yashahime: Princess Half-Demon

Título Original: Hanyô no Yashahime
Qualidade: Bluray 1080p / WEB-DL 1080P
Áudio: Dual Áudio
Legenda: Embutida (selecionável)
Tamanho: S01 18.1 GB | S02 9.4 GB

1ª Temporada – Hanyou no Yashahime꞉ Sengoku Otogizoushi – Bluray 1080p
2ª Temporada – Hanyou no Yashahime꞉ Sengoku Otogizoushi – Ni no Shou – WEB-DL 1080P

“Um conto de fadas feudal”

Yashahime: Princess Half-Demon Bluray 1080p Bluray Remux 4K UHD 2160p HDR

Spoiler

Video
ID : 1
Format : HEVC
Format/Info : High Efficiency Video Coding
Format profile : Main 10@L5@Main
Codec ID : V_MPEGH/ISO/HEVC
Duration : 23 min 22 s
Bit rate : 5 742 kb/s
Width : 1 920 pixels
Height : 1 080 pixels
Display aspect ratio : 16:9
Frame rate mode : Constant
Frame rate : 23.976 (24000/1001) FPS
Color space : YUV
Chroma subsampling : 4:2:0
Bit depth : 10 bits
Bits/(Pixel*Frame) : 0.116
Stream size : 960 MiB (92%)
Default : Yes
Forced : No
Color range : Limited

Audio #1
ID : 2
Format : Opus
Codec ID : A_OPUS
Duration : 23 min 22 s
Bit rate : 188 kb/s
Channel(s) : 2 channels
Channel layout : L R
Sampling rate : 48.0 kHz
Frame rate : 50.000 FPS (960 SPF)
Compression mode : Lossy
Stream size : 31.4 MiB (3%)
Title : JAP OPUS 2.0
Writing library : opusenc from opus-tools 0.2-3-gf5f571b
Language : Japanese
Default : Yes
Forced : No
ENCODER_OPTIONS : –vbr –bitrate 192

Audio #2
ID : 4
Format : Opus
Codec ID : A_OPUS
Duration : 23 min 20 s
Bit rate : 189 kb/s
Channel(s) : 2 channels
Channel layout : L R
Sampling rate : 48.0 kHz
Frame rate : 50.000 FPS (960 SPF)
Compression mode : Lossy
Stream size : 31.6 MiB (3%)
Title : PT-BR OPUS 2.0
Writing library : opusenc from opus-tools 0.2-3-gf5f571b
Language : Portuguese
Default : No
Forced : No
ENCODER_OPTIONS : –vbr –bitrate 192

Text #1
ID : 5
Format : ASS
Codec ID : S_TEXT/ASS
Codec ID/Info : Advanced Sub Station Alpha
Duration : 23 min 16 s
Bit rate : 3 456 b/s
Frame rate : 1.694 FPS
Count of elements : 2365
Compression mode : Lossless
Stream size : 589 KiB (0%)
Title : TEST-KUN FULL
Language : Portuguese
Default : Yes
Forced : No

Text #2
ID : 6
Format : ASS
Codec ID : S_TEXT/ASS
Codec ID/Info : Advanced Sub Station Alpha
Duration : 23 min 9 s
Bit rate : 3 376 b/s
Frame rate : 1.518 FPS
Count of elements : 2109
Compression mode : Lossless
Stream size : 573 KiB (0%)
Title : TEST-KUN FORCED
Language : Portuguese
Default : No
Forced : No

Menu
00:00:00.000 : Prólogo
00:02:13.049 : Abertura
00:03:43.014 : Parte A
00:13:08.996 : Parte B
00:21:09.894 : Encerramento
00:23:18.021 : Anúncio da segunda temporada
Karmezyn


Visite nosso fórum / Pedidos de Filmes / Pedidos de Séries

Yashahime: Princess Half-Demon Bluray 1080p Bluray Remux 4K UHD 2160p HDR

Comentários

Entrar

Não tem uma conta? Cadastre-se
Inscrever-se

Já tem uma conta? Entrar