baixarbluray filmes e series em hd

Berserk

Berserk – Guts, um homem que se auto intitula “O Espadachim Negro”, passa os seus dias servindo a um grupo de mercenários, o Bando do Falcão, conhecido como “O Ceifador do Campo de Batalha. Liderado por um homem ambicioso, cruel, e inteligente chamado Griffith, juntos eles batalham para cruzar o caminho para a corte real, porém são forçados a um destino que pode mudar suas vidas inteiras.

Berserk

Título Original: Kenpuu Denki Berserk
Qualidade: Remux
Áudio: Dual Áudio
Legenda: Embutida (selecionável)
Tamanho: ~3,2 GB – Por Episódio

Temporada Completa – Kenpuu Denki Berserk – Remux

“Ao menos, é verdade que o Homem não tem controle… nem mesmo sobre sua própria vontade.”

Berserk Bluray 1080p Bluray Remux 4K UHD 2160p HDR

Spoiler

Video
ID : 1
Format : AVC
Format/Info : Advanced Video Codec
Format profile : High@L4.1
Format settings : CABAC / 3 Ref Frames
Format settings, CABAC : Yes
Format settings, Reference fra : 3 frames
Codec ID : V_MPEG4/ISO/AVC
Duration : 23 min 39 s
Bit rate mode : Variable
Bit rate : 18.0 Mb/s
Maximum bit rate : 31.0 Mb/s
Width : 1 920 pixels
Height : 1 080 pixels
Display aspect ratio : 16:9
Frame rate mode : Constant
Frame rate : 23.976 (24000/1001) FPS
Color space : YUV
Chroma subsampling : 4:2:0
Bit depth : 8 bits
Scan type : Progressive
Bits/(Pixel*Frame) : 0.362
Stream size : 2.97 GiB (91%)
Writing library : x264 core 164 r3095 baee400
Encoding settings : cabac=1 / ref=4 / deblock=1:-1:-1 / analyse=0x3:0x133 / me=umh / subme=10 / psy=1 / psy_rd=1.00:0.15 / mixed_ref=1 / me_range=24 / chroma_me=1 / trellis=2 / 8x8dct=1 / cqm=0 / deadzone=21,11 / fast_pskip=1 / chroma_qp_offset=-3 / threads=30 / lookahead_threads=2 / sliced_threads=0 / slices=4 / nr=0 / decimate=1 / interlaced=0 / bluray_compat=1 / constrained_intra=0 / bframes=3 / b_pyramid=1 / b_adapt=2 / b_bias=0 / direct=3 / weightb=1 / open_gop=1 / weightp=1 / keyint=24 / keyint_min=1 / scenecut=40 / intra_refresh=0 / rc_lookahead=24 / rc=2pass / mbtree=1 / bitrate=18000 / ratetol=1.0 / qcomp=0.60 / qpmin=0 / qpmax=69 / qpstep=4 / cplxblur=20.0 / qblur=0.5 / vbv_maxrate=31000 / vbv_bufsize=30000 / nal_hrd=vbr / filler=0 / ip_ratio=1.40 / aq=1:1.00
Default : Yes
Forced : No
Color range : Limited
Color primaries : BT.709
Transfer characteristics : BT.709
Matrix coefficients : BT.709

Audio #1
ID : 2
Format : DTS XLL
Format/Info : Digital Theater Systems
Commercial name : DTS-HD Master Audio
Codec ID : A_DTS
Duration : 23 min 39 s
Bit rate mode : Variable
Bit rate : 837 kb/s
Channel(s) : 2 channels
Channel layout : L R
Sampling rate : 48.0 kHz
Frame rate : 93.750 FPS (512 SPF)
Bit depth : 16 bits
Compression mode : Lossless
Stream size : 142 MiB (4%)
Language : English
Default : No
Forced : No

Audio #2
ID : 3
Format : DTS XLL
Format/Info : Digital Theater Systems
Commercial name : DTS-HD Master Audio
Codec ID : A_DTS
Duration : 23 min 39 s
Bit rate mode : Variable
Bit rate : 813 kb/s
Channel(s) : 2 channels
Channel layout : L R
Sampling rate : 48.0 kHz
Frame rate : 93.750 FPS (512 SPF)
Bit depth : 16 bits
Compression mode : Lossless
Stream size : 138 MiB (4%)
Language : Japanese
Default : Yes
Forced : No

Text #1
ID : 4
Format : ASS
Codec ID : S_TEXT/ASS
Codec ID/Info : Advanced Sub Station Alpha
Duration : 23 min 35 s
Bit rate : 96 b/s
Frame rate : 0.197 FPS
Count of elements : 279
Compression mode : Lossless
Stream size : 16.7 KiB (0%)
Title : PT-BR [Alkabane] {Karmezyn}
Language : Portuguese
Default : Yes
Forced : Yes

Text #2
ID : 5
Format : ASS
Codec ID : S_TEXT/ASS
Codec ID/Info : Advanced Sub Station Alpha
Duration : 19 min 59 s
Bit rate : 63 b/s
Frame rate : 0.163 FPS
Count of elements : 196
Compression mode : Lossless
Stream size : 9.36 KiB (0%)
Title : PT-BR [Wasureta Fansub]
Language : Portuguese
Default : No
Forced : No

Text #3
ID : 6
Format : PGS
Muxing mode : zlib
Codec ID : S_HDMV/PGS
Codec ID/Info : Picture based subtitle format used on BDs/HD-DVDs
Duration : 23 min 35 s
Bit rate : 40.5 kb/s
Frame rate : 0.162 FPS
Count of elements : 229
Stream size : 6.84 MiB (0%)
Language : English
Default : No
Forced : No

Text #4
ID : 7
Format : PGS
Muxing mode : zlib
Codec ID : S_HDMV/PGS
Codec ID/Info : Picture based subtitle format used on BDs/HD-DVDs
Duration : 23 min 35 s
Bit rate : 58.0 kb/s
Frame rate : 0.426 FPS
Count of elements : 603
Stream size : 9.80 MiB (0%)
Language : English
Default : No
Forced : No

Menu #1
00:00:00.000 : en:Chapter 1
00:01:12.900 : en:Chapter 2
00:02:26.867 : en:Chapter 3
00:09:52.333 : en:Chapter 4
00:21:43.633 : en:Chapter 5
00:23:05.467 : en:Chapter 6

Menu #2
00:00:00.054 : en:00:00:00.054 / en:00:00:00.054

Menu #3
00:00:00.000 : en:Prologue
00:01:12.990 : en:Opening
00:02:22.990 : en:Part A
00:09:51.049 : en:Part B
00:21:45.012 : en:Closing
00:23:04.900 : en:Preview
Karmezyn


Visite nosso fórum / Pedidos de Filmes / Pedidos de Séries

Berserk Bluray 1080p Bluray Remux 4K UHD 2160p HDR

Entrar

Não tem uma conta? Cadastre-se
Inscrever-se

Já tem uma conta? Entrar