baixarbluray filmes e series em hd

Btooom!

Btooom! – Ryota Sakamoto é um desempregado de 22 anos que mora com a mãe. No mundo real ele não é alguém especial, mas online ele é um dos melhores jogadores do planeta de um jogo chamado Btooom!. Um dia, ele acorda no que parece ser uma ilha tropical, porém não lembra como ou porque foi parar ali. Enquanto andava pela praia, Ry?ta viu alguém e chamou por socorro. O estranho respondeu jogando uma bomba nele! Agora Ry?ta percebe que sua vida corre perigo e que está em uma versão da vida real de seu jogo preferido! Ry?ta conseguirá sobreviver e descobrir porque isso está acontecendo e quem é o culpado?

Btooom!

Título Original: BTOOOM!
Qualidade: Bluray 1080p
Áudio: Dual Áudio (JAP/ENG)
Legenda: Embutida (selecionável)
Tamanho: ~1,6 GB – Por Episódio

1ª Temporada – Btooom!(2012) – Bluray 1080p

“Primeiro, ficam todos tranquilos e ajudam uns aos outros. Mas quando suas vidas estão em perigo, não hesitam em trair seus colegas.”

Btooom! Bluray 1080p Bluray Remux 4K UHD 2160p HDR

Spoiler

Video
ID : 1
Format : AVC
Format/Info : Advanced Video Codec
Format profile : High 10@L5
Format settings : CABAC / 4 Ref Frames
Format settings, CABAC : Yes
Format settings, Reference fra : 4 frames
Codec ID : V_MPEG4/ISO/AVC
Duration : 24 min 22 s
Bit rate : 6 561 kb/s
Width : 1 920 pixels
Height : 1 080 pixels
Display aspect ratio : 16:9
Frame rate mode : Constant
Frame rate : 23.976 (24000/1001) FPS
Color space : YUV
Chroma subsampling : 4:2:0
Bit depth : 10 bits
Scan type : Progressive
Bits/(Pixel*Frame) : 0.132
Stream size : 1.12 GiB (75%)
Title : BD 1080p 10bit [Beatrice-raws]
Writing library : x264 core 129 r2245+729M 1a52e03
Encoding settings : cabac=1 / ref=4 / deblock=1:1:-1 / analyse=0x3:0x113 / me=umh / subme=9 / psy=1 / fade_compensate=0.00 / psy_rd=1.00:0.00 / mixed_ref=1 / me_range=24 / chroma_me=1 / trellis=2 / 8x8dct=1 / cqm=0 / deadzone=21,11 / fast_pskip=1 / chroma_qp_offset=-2 / threads=6 / lookahead_threads=1 / sliced_threads=0 / nr=0 / decimate=1 / interlaced=0 / bluray_compat=0 / constrained_intra=0 / fgo=0 / bframes=9 / b_pyramid=2 / b_adapt=2 / b_bias=0 / direct=1 / weightb=1 / open_gop=0 / weightp=2 / keyint=240 / keyint_min=24 / scenecut=40 / intra_refresh=0 / rc=crf / mbtree=0 / crf=15.5 / qcomp=0.72 / qpmin=0 / qpmax=81 / qpstep=4 / ip_ratio=1.40 / pb_ratio=1.30 / aq=1:0.85
Language : Japanese
Default : Yes
Forced : No
Color range : Limited
Color primaries : BT.709
Transfer characteristics : BT.709
Matrix coefficients : BT.709

Audio #1
ID : 2
Format : FLAC
Format/Info : Free Lossless Audio Codec
Codec ID : A_FLAC
Duration : 24 min 27 s
Bit rate mode : Variable
Bit rate : 717 kb/s
Channel(s) : 2 channels
Channel layout : L R
Sampling rate : 48.0 kHz
Frame rate : 11.719 FPS (4096 SPF)
Bit depth : 16 bits
Compression mode : Lossless
Stream size : 125 MiB (8%)
Title : Japanese 2.0 FLAC
Writing library : libFLAC 1.2.1 (2007-09-17)
Language : Japanese
Default : Yes
Forced : No
MD5 of the unencoded content : C8DE0B02FFB469822AB030768253F80C

Audio #2
ID : 3
Format : FLAC
Format/Info : Free Lossless Audio Codec
Codec ID : A_FLAC
Duration : 24 min 22 s
Bit rate mode : Variable
Bit rate : 1 491 kb/s
Channel(s) : 2 channels
Channel layout : L R
Sampling rate : 48.0 kHz
Frame rate : 11.719 FPS (4096 SPF)
Bit depth : 24 bits
Compression mode : Lossless
Stream size : 260 MiB (17%)
Title : English 2.0 FLAC
Writing library : libFLAC 1.3.0 (2013-05-26)
Language : English
Default : No
Forced : No
MD5 of the unencoded content : 17DF7A4199B9A77C7EF84BA272241F4A

Text #1
ID : 4
Format : ASS
Codec ID : S_TEXT/ASS
Codec ID/Info : Advanced Sub Station Alpha
Duration : 24 min 17 s
Bit rate : 526 b/s
Frame rate : 0.646 FPS
Count of elements : 941
Compression mode : Lossless
Stream size : 93.7 KiB (0%)
Title : Trad. Lieh Pena / Style. markubex
Language : Portuguese
Default : Yes
Forced : No

Text #2
ID : 5
Format : ASS
Codec ID : S_TEXT/ASS
Codec ID/Info : Advanced Sub Station Alpha
Duration : 22 min 36 s
Bit rate : 432 b/s
Frame rate : 0.390 FPS
Count of elements : 529
Compression mode : Lossless
Stream size : 71.6 KiB (0%)
Title : Signs & Songs
Language : English
Default : No
Forced : No

Text #3
ID : 6
Format : ASS
Codec ID : S_TEXT/ASS
Codec ID/Info : Advanced Sub Station Alpha
Duration : 24 min 18 s
Bit rate : 516 b/s
Frame rate : 0.636 FPS
Count of elements : 927
Compression mode : Lossless
Stream size : 91.9 KiB (0%)
Title : Full Subtitles [FFF modified]
Language : English
Default : No
Forced : No

Menu
00:00:00.000 : en:Prologue
00:01:44.063 : en:Opening
00:03:14.028 : en:Part A
00:12:47.058 : en:Part B
00:22:36.022 : en:Ending
00:24:05.987 : en:Preview
Karmezyn


Visite nosso fórum / Pedidos de Filmes / Pedidos de Séries

Btooom! Bluray 1080p Bluray Remux 4K UHD 2160p HDR

Entrar

Não tem uma conta? Cadastre-se
Inscrever-se

Já tem uma conta? Entrar