Dragon Ball Super

Dragon Ball Super – Seis meses após a derrota de Majin Buu, Goku arranja um novo emprego como… Fazendeiro de nabos. Agora que a Terra está em paz, nossos heróis levam vidas mundanas, mas não por muito tempo. Longe dali, Bills, o poderoso Deus da Destruição, recebe uma profecia de que encontrará seu fim nas mãos de um ser ainda mais poderoso, e sua busca pelo Deus dos Saiyajins o traz para a Terra. Será que Goku e seus amigos conseguirão derrotar seu mais poderoso inimigo até então?

Dragon Ball Super

Título Original: Doragon bôru cho
Qualidade: Bluray 1080p
Áudio: Dual Áudio
Legenda: Embutida (selecionável)
Tamanho: ~1GB – Por Episódio

1ª Saga – A Batalha dos Deuses (01-14)
2ª Saga – O Renascimento de Freeza (15-27)
3ª Saga – Deus da Destruição Champa (28-41)
4ª Saga – Planeta Potôfu (42-46)
5ª Saga – Trunks do Futuro (47-67)
6ª Saga – O Assassinato de Goku [Episódios de Transição] (68-76)
7ª Saga – Sobrevivência do Universo (77-131)

Dragon Ball Super Bluray 1080p Bluray Remux 4K UHD 2160p HDR

Spoiler

Video
ID : 1
Format : AVC
Format/Info : Advanced Video Codec
Format profile : High@L5
Format settings : CABAC / 10 Ref Frames
Format settings, CABAC : Yes
Format settings, Reference fra : 10 frames
Codec ID : V_MPEG4/ISO/AVC
Duration : 23 min 6 s
Bit rate : 6 103 kb/s
Width : 1 920 pixels
Height : 1 080 pixels
Display aspect ratio : 16:9
Frame rate mode : Constant
Frame rate : 23.976 (24000/1001) FPS
Color space : YUV
Chroma subsampling : 4:2:0
Bit depth : 8 bits
Scan type : Progressive
Bits/(Pixel*Frame) : 0.123
Stream size : 1 008 MiB (88%)
Writing library : x264 core 148 r2721+45 b14c928 7mod [8-bit@all X86_64]
Encoding settings : cabac=1 / ref=10 / deblock=1:0:0 / analyse=0x3:0x113 / me=umh / subme=9 / psy=1 / fade_compensate=0.00 / psy_rd=0.80:0.25 / mixed_ref=1 / me_range=32 / chroma_me=1 / trellis=1 / 8x8dct=1 / cqm=0 / deadzone=21,11 / fast_pskip=0 / chroma_qp_offset=-4 / threads=24 / lookahead_threads=2 / sliced_threads=0 / nr=0 / decimate=1 / interlaced=0 / bluray_compat=0 / constrained_intra=0 / fgo=1 / bframes=8 / b_pyramid=2 / b_adapt=1 / b_bias=0 / direct=1 / weightb=1 / open_gop=0 / weightp=2 / keyint=250 / keyint_min=23 / scenecut=40 / intra_refresh=0 / rc_lookahead=70 / rc=crf / mbtree=1 / crf=17.0000 / qcomp=0.60 / qpmin=0:0:0 / qpmax=69:69:69 / qpstep=4 / ip_ratio=1.40 / aq=3:0.80 / aq-sensitivity=10.00 / aq-factor=1.00:1.00:1.00 / aq2=0 / aq3=0
Default : Yes
Forced : No

Audio #1
ID : 2
Format : AC-3
Format/Info : Audio Coding 3
Commercial name : Dolby Digital
Codec ID : A_AC3
Duration : 23 min 6 s
Bit rate mode : Constant
Bit rate : 192 kb/s
Channel(s) : 2 channels
Channel layout : L R
Sampling rate : 48.0 kHz
Frame rate : 31.250 FPS (1536 SPF)
Compression mode : Lossy
Stream size : 31.7 MiB (3%)
Title : Brazilian Portuguese
Language : Portuguese
Service kind : Complete Main
Default : Yes
Forced : Yes

Audio #2
ID : 3
Format : FLAC
Format/Info : Free Lossless Audio Codec
Codec ID : A_FLAC
Duration : 23 min 6 s
Bit rate mode : Variable
Bit rate : 661 kb/s
Channel(s) : 2 channels
Channel layout : L R
Sampling rate : 48.0 kHz
Frame rate : 11.719 FPS (4096 SPF)
Bit depth : 16 bits
Compression mode : Lossless
Stream size : 109 MiB (9%)
Title : Japanese
Writing library : libFLAC 1.2.1 (UTC 2007-09-17)
Language : Japanese
Default : Yes
Forced : No
MD5 of the unencoded content : B2353060203E2090066324AA8B1EC6C5

Text
ID : 4
Format : ASS
Codec ID : S_TEXT/ASS
Codec ID/Info : Advanced Sub Station Alpha
Duration : 22 min 52 s
Bit rate : 95 b/s
Frame rate : 0.214 FPS
Count of elements : 293
Compression mode : Lossless
Stream size : 16.1 KiB (0%)
Title : Brazilian Portuguese
Language : Portuguese
Default : No
Forced : No


Visite nosso fórum / Pedidos de Filmes / Pedidos de Séries

Dragon Ball Super Bluray 1080p Bluray Remux 4K UHD 2160p HDR

Entrar

Não tem uma conta? Cadastre-se
Inscrever-se

Já tem uma conta? Entrar