baixarbluray filmes e series em hd

Hércules

Hércules – Conheça a vida de Hércules durante os anos que passou treinando para ser um herói com o sátiro Phil. Muitos dos deuses e deusas do Olimpo visitam o jovem herói e o ajudam, ou o atrapalham, em suas novas aventuras.

Hércules

Título Original: Hercules
Qualidade: WEB-DL
Áudio: Dual Áudio
Legenda: Embutida (selecionável)
Tamanho: S01 27.1 GB | S02 6.8 G

1ª Temporada – Hércules – WEB-DL
2ª Temporada – Hércules – WEB-DL

“Hércules, cria de Zeus, se apresente ao mundo do herói!”

Hércules Bluray 1080p Bluray Remux 4K UHD 2160p HDR

Spoiler

Video
ID : 1
Format : AVC
Format/Info : Advanced Video Codec
Format profile : Main@L3.1
Format settings : CABAC / 4 Ref Frames
Format settings, CABAC : Yes
Format settings, Reference fra : 4 frames
Codec ID : V_MPEG4/ISO/AVC
Duration : 23 min 54 s
Bit rate mode : Variable
Bit rate : 2 872 kb/s
Maximum bit rate : 4 500 kb/s
Width : 640 pixels
Height : 480 pixels
Display aspect ratio : 4:3
Frame rate mode : Constant
Frame rate : 23.976 (24000/1001) FPS
Color space : YUV
Chroma subsampling : 4:2:0
Bit depth : 8 bits
Scan type : Progressive
Bits/(Pixel*Frame) : 0.390
Time code of first frame : 00:00:00;00
Stream size : 491 MiB (92%)
Default : Yes
Forced : No
Color range : Limited
Matrix coefficients : BT.601

Audio #1
ID : 2
Format : AAC LC
Format/Info : Advanced Audio Codec Low Complexity
Codec ID : A_AAC-2
Duration : 23 min 42 s
Bit rate : 125 kb/s
Channel(s) : 2 channels
Channel layout : L R
Sampling rate : 48.0 kHz
Frame rate : 46.875 FPS (1024 SPF)
Compression mode : Lossy
Stream size : 21.3 MiB (4%)
Language : English
Default : Yes
Forced : No

Audio #2
ID : 3
Format : AAC LC
Format/Info : Advanced Audio Codec Low Complexity
Codec ID : A_AAC-2
Duration : 23 min 54 s
Bit rate : 125 kb/s
Channel(s) : 2 channels
Channel layout : L R
Sampling rate : 48.0 kHz
Frame rate : 46.875 FPS (1024 SPF)
Compression mode : Lossy
Stream size : 21.4 MiB (4%)
Language : Portuguese
Default : No
Forced : No

Text #1
ID : 4
Format : UTF-8
Codec ID : S_TEXT/UTF8
Codec ID/Info : UTF-8 Plain Text
Duration : 22 min 10 s
Bit rate : 64 b/s
Frame rate : 0.277 FPS
Count of elements : 368
Stream size : 10.4 KiB (0%)
Language : Danish
Default : No
Forced : No

Text #2
ID : 5
Format : UTF-8
Codec ID : S_TEXT/UTF8
Codec ID/Info : UTF-8 Plain Text
Duration : 22 min 14 s
Bit rate : 83 b/s
Frame rate : 0.356 FPS
Count of elements : 475
Stream size : 13.7 KiB (0%)
Title : SDH
Language : English
Default : No
Forced : No

Text #3
ID : 6
Format : UTF-8
Codec ID : S_TEXT/UTF8
Codec ID/Info : UTF-8 Plain Text
Duration : 22 min 10 s
Bit rate : 61 b/s
Frame rate : 0.277 FPS
Count of elements : 369
Stream size : 10.1 KiB (0%)
Language : Norwegian
Default : No
Forced : No

Text #4
ID : 7
Format : UTF-8
Codec ID : S_TEXT/UTF8
Codec ID/Info : UTF-8 Plain Text
Duration : 22 min 10 s
Bit rate : 65 b/s
Frame rate : 0.277 FPS
Count of elements : 369
Stream size : 10.6 KiB (0%)
Language : Finnish
Default : No
Forced : No

Text #5
ID : 8
Format : UTF-8
Codec ID : S_TEXT/UTF8
Codec ID/Info : UTF-8 Plain Text
Duration : 22 min 10 s
Bit rate : 68 b/s
Frame rate : 0.277 FPS
Count of elements : 368
Stream size : 11.1 KiB (0%)
Language : Swedish
Default : No
Forced : No

Menu
00:00:00.042 : en:Intro start
00:01:05.315 : en:Intro end
Karmezyn


Visite nosso fórum / Pedidos de Filmes / Pedidos de Séries

Hércules Bluray 1080p Bluray Remux 4K UHD 2160p HDR

Entrar

Não tem uma conta? Cadastre-se
Inscrever-se

Já tem uma conta? Entrar