baixarbluray filmes e series em hd

Max Steel

Max Steel – Max McGrath é um jovem universitário que vê sua vida mudar completamente após receber poderes de um robô alienígena chamado Steel. Juntos, essa dupla dá vida ao super-herói Max Steel, capaz de salvar o mundo das ameaças mutantes.

Max Steel

Título Original: Max Steel
Qualidade: WEB-DL 1080P
Áudio: Dual Áudio
Legenda: Embutida (selecionável)
Tamanho: S01 23.7 GB | S02 23.4 GB

1ª Temporada – Max Steel (2013) – WEB-DL 1080P
2ª Temporada – Max Steel (2013) – WEB-DL 1080P

“Modo Turbo!”

Max Steel Bluray 1080p Bluray Remux 4K UHD 2160p HDR

Spoiler

Video
ID : 1
Format : AVC
Format/Info : Advanced Video Codec
Format profile : Main@L4
Format settings : CABAC / 3 Ref Frames
Format settings, CABAC : Yes
Format settings, Reference fra : 3 frames
Codec ID : V_MPEG4/ISO/AVC
Duration : 22 min 3 s
Bit rate mode : Variable
Bit rate : 6 190 kb/s
Maximum bit rate : 9 285 kb/s
Width : 1 920 pixels
Height : 1 080 pixels
Display aspect ratio : 16:9
Frame rate mode : Constant
Frame rate : 23.976 (24000/1001) FPS
Color space : YUV
Chroma subsampling : 4:2:0
Bit depth : 8 bits
Scan type : Progressive
Bits/(Pixel*Frame) : 0.125
Stream size : 971 MiB (89%)
Writing library : x264 core 118
Encoding settings : cabac=1 / ref=3 / deblock=1:0:0 / analyse=0x1:0x111 / me=umh / subme=10 / psy=1 / psy_rd=1.00:0.00 / mixed_ref=1 / me_range=24 / chroma_me=1 / trellis=2 / 8x8dct=0 / cqm=0 / deadzone=21,11 / fast_pskip=1 / chroma_qp_offset=-2 / threads=6 / sliced_threads=0 / nr=0 / decimate=1 / interlaced=0 / bluray_compat=0 / constrained_intra=0 / bframes=2 / b_pyramid=0 / b_adapt=2 / b_bias=0 / direct=3 / weightb=1 / open_gop=0 / weightp=2 / keyint=48 / keyint_min=25 / scenecut=0 / intra_refresh=0 / rc_lookahead=0 / rc=2pass / mbtree=1 / bitrate=6190 / ratetol=1.0 / qcomp=0.50 / qpmin=6 / qpmax=51 / qpstep=4 / cplxblur=20.0 / qblur=0.5 / vbv_maxrate=9285 / vbv_bufsize=12380 / nal_hrd=vbr / ip_ratio=1.40 / aq=1:1.00
Default : Yes
Forced : No

Audio #1
ID : 2
Format : AC-3
Format/Info : Audio Coding 3
Commercial name : Dolby Digital
Codec ID : A_AC3
Duration : 22 min 4 s
Bit rate mode : Constant
Bit rate : 384 kb/s
Channel(s) : 6 channels
Channel layout : L R C LFE Ls Rs
Sampling rate : 48.0 kHz
Frame rate : 31.250 FPS (1536 SPF)
Compression mode : Lossy
Stream size : 60.6 MiB (6%)
Title : English
Language : English
Service kind : Complete Main
Default : Yes
Forced : No
AC3_metadata cmixlev : -3.0 dB
surmixlev : -3 dB

Audio #2
ID : 3
Format : AC-3
Format/Info : Audio Coding 3
Commercial name : Dolby Digital
Codec ID : A_AC3
Duration : 22 min 4 s
Bit rate mode : Constant
Bit rate : 384 kb/s
Channel(s) : 6 channels
Channel layout : L R C LFE Ls Rs
Sampling rate : 48.0 kHz
Frame rate : 31.250 FPS (1536 SPF)
Compression mode : Lossy
Stream size : 60.6 MiB (6%)
Title : Brazilian
Language : Portuguese
Service kind : Complete Main
Default : No
Forced : No
AC3_metadata cmixlev : -3.0 dB
surmixlev : -3 dB

Text #1
ID : 4
Format : UTF-8
Codec ID : S_TEXT/UTF8
Codec ID/Info : UTF-8 Plain Text
Duration : 21 min 21 s
Bit rate : 65 b/s
Frame rate : 0.363 FPS
Count of elements : 465
Stream size : 10.3 KiB (0%)
Language : English
Default : No
Forced : No

Text #2
ID : 5
Format : UTF-8
Codec ID : S_TEXT/UTF8
Codec ID/Info : UTF-8 Plain Text
Duration : 21 min 21 s
Bit rate : 68 b/s
Frame rate : 0.400 FPS
Count of elements : 512
Stream size : 10.8 KiB (0%)
Title : SDH
Language : English
Default : No
Forced : No

Text #3
ID : 6
Format : UTF-8
Codec ID : S_TEXT/UTF8
Codec ID/Info : UTF-8 Plain Text
Duration : 21 min 16 s
Bit rate : 66 b/s
Frame rate : 0.201 FPS
Count of elements : 257
Stream size : 10.4 KiB (0%)
Language : Spanish
Default : No
Forced : No

Text #4
ID : 7
Format : UTF-8
Codec ID : S_TEXT/UTF8
Codec ID/Info : UTF-8 Plain Text
Duration : 21 min 12 s
Bit rate : 95 b/s
Frame rate : 0.204 FPS
Count of elements : 260
Stream size : 14.8 KiB (0%)
Language : Hebrew
Default : No
Forced : No

Text #5
ID : 8
Format : UTF-8
Codec ID : S_TEXT/UTF8
Codec ID/Info : UTF-8 Plain Text
Duration : 21 min 14 s
Bit rate : 65 b/s
Frame rate : 0.285 FPS
Count of elements : 363
Stream size : 10.2 KiB (0%)
Language : Polish
Default : No
Forced : No

Text #6
ID : 9
Format : UTF-8
Codec ID : S_TEXT/UTF8
Codec ID/Info : UTF-8 Plain Text
Duration : 21 min 13 s
Bit rate : 71 b/s
Frame rate : 0.243 FPS
Count of elements : 310
Stream size : 11.1 KiB (0%)
Language : Portuguese
Default : No
Forced : No

Text #7
ID : 10
Format : UTF-8
Codec ID : S_TEXT/UTF8
Codec ID/Info : UTF-8 Plain Text
Duration : 21 min 17 s
Bit rate : 69 b/s
Frame rate : 0.205 FPS
Count of elements : 262
Stream size : 10.9 KiB (0%)
Title : Brazilian
Language : Portuguese
Default : No
Forced : No

Text #8
ID : 11
Format : UTF-8
Codec ID : S_TEXT/UTF8
Codec ID/Info : UTF-8 Plain Text
Duration : 21 min 16 s
Bit rate : 168 b/s
Frame rate : 0.249 FPS
Count of elements : 318
Stream size : 26.3 KiB (0%)
Language : Thai
Default : No
Forced : No

Text #9
ID : 12
Format : UTF-8
Codec ID : S_TEXT/UTF8
Codec ID/Info : UTF-8 Plain Text
Duration : 21 min 14 s
Bit rate : 68 b/s
Frame rate : 0.261 FPS
Count of elements : 333
Stream size : 10.7 KiB (0%)
Language : Turkish
Default : No
Forced : No
Karmezyn


Visite nosso fórum / Pedidos de Filmes / Pedidos de Séries

Max Steel Bluray 1080p Bluray Remux 4K UHD 2160p HDR

Entrar

Não tem uma conta? Cadastre-se
Inscrever-se

Já tem uma conta? Entrar