baixarbluray filmes e series em hd

Os Cavaleiros do Zodíaco

Os Cavaleiros do Zodíaco – Os 88 Cavaleiros de Atena trajam desde os tempos mitológicos armaduras protegidas pelas constelações do céu para, assim, servir sua deusa e preservar a paz e o amor na Terra. Agora, nos tempos modernos, nasce uma nova Atena e, para que ela não seja assassinada ainda bebê por aqueles que estão ofuscados pelo poder e pela ganância, ela é levada para longe, onde cresce como Saori Kido. Uma nova batalha santa está para começar! Vão, jovens Cavaleiros, protejam Atena!

Os Cavaleiros do Zodíaco

Título Original: Saint Seiya
Qualidade: Bluray 1080p
Áudio: Multi Áudio (PT-BR / JPN / FRE / SPA)
Legenda: Embutida (selecionável)
Tamanho: ~2.0 GB – Por Episódio

Temporada Completa – Os Cavaleiros do Zodíaco (1986) – Bluray 1080p

“Você é bonito só por fora, mas o seu coração é horrível como de uma besta. Deveria ver o que na realidade, você é.”

Os Cavaleiros do Zodíaco Bluray 1080p Bluray Remux 4K UHD 2160p HDR

Spoiler

Video
ID : 1
Format : AVC
Format/Info : Advanced Video Codec
Format profile : High 10@L5.1
Format settings : CABAC / 9 Ref Frames
Format settings, CABAC : Yes
Format settings, Reference fra : 9 frames
Codec ID : V_MPEG4/ISO/AVC
Duration : 23 min 44 s
Bit rate : 10.5 Mb/s
Width : 1 440 pixels
Height : 1 080 pixels
Display aspect ratio : 4:3
Frame rate mode : Constant
Frame rate : 23.976 (24000/1001) FPS
Color space : YUV
Chroma subsampling : 4:2:0
Bit depth : 10 bits
Scan type : Progressive
Bits/(Pixel*Frame) : 0.283
Stream size : 1.75 GiB (92%)
Language : Japanese
Default : Yes
Forced : No

Audio #1
ID : 2
Format : AC-3
Format/Info : Audio Coding 3
Commercial name : Dolby Digital
Codec ID : A_AC3
Duration : 23 min 36 s
Bit rate mode : Constant
Bit rate : 256 kb/s
Channel(s) : 2 channels
Channel layout : L R
Sampling rate : 48.0 kHz
Frame rate : 31.250 FPS (1536 SPF)
Compression mode : Lossy
Stream size : 43.2 MiB (2%)
Title : (Álamo)
Language : Portuguese
Service kind : Complete Main
Default : Yes
Forced : No

Audio #2
ID : 3
Format : AAC LC
Format/Info : Advanced Audio Codec Low Complexity
Codec ID : A_AAC-2
Duration : 23 min 36 s
Bit rate : 96.0 kb/s
Channel(s) : 2 channels
Channel layout : L R
Sampling rate : 48.0 kHz
Frame rate : 46.875 FPS (1024 SPF)
Compression mode : Lossy
Stream size : 16.2 MiB (1%)
Title : Gota Mágica
Language : Portuguese
Default : No
Forced : No

Audio #3
ID : 4
Format : FLAC
Format/Info : Free Lossless Audio Codec
Codec ID : A_FLAC
Duration : 23 min 44 s
Bit rate mode : Variable
Bit rate : 290 kb/s
Channel(s) : 2 channels
Channel layout : L R
Sampling rate : 48.0 kHz
Frame rate : 11.719 FPS (4096 SPF)
Bit depth : 16 bits
Compression mode : Lossless
Stream size : 49.2 MiB (3%)
Writing library : libFLAC 1.2.1 (UTC 2007-09-17)
Language : Japanese
Default : No
Forced : No
MD5 of the unencoded content : 0E8F96AC886449A10CA81DDA0C49182B

Audio #4
ID : 5
Format : AAC LC SBR
Format/Info : Advanced Audio Codec Low Complexity with Spectral Band Replication
Commercial name : HE-AAC
Format settings : Explicit
Codec ID : A_AAC-2
Duration : 23 min 35 s
Bit rate : 64.0 kb/s
Channel(s) : 2 channels
Channel layout : L R
Sampling rate : 48.0 kHz
Frame rate : 23.438 FPS (2048 SPF)
Compression mode : Lossy
Delay relative to video : 41 ms
Stream size : 10.8 MiB (0%)
Language : French
Default : No
Forced : No

Audio #5
ID : 6
Format : AAC LC
Format/Info : Advanced Audio Codec Low Complexity
Codec ID : A_AAC-2
Duration : 23 min 35 s
Bit rate : 110 kb/s
Channel(s) : 2 channels
Channel layout : L R
Sampling rate : 44.1 kHz
Frame rate : 43.066 FPS (1024 SPF)
Compression mode : Lossy
Delay relative to video : 2 ms
Stream size : 18.5 MiB (1%)
Language : Spanish
Default : No
Forced : No

Audio #6
ID : 7
Format : AAC LC
Format/Info : Advanced Audio Codec Low Complexity
Codec ID : A_AAC-2
Duration : 23 min 35 s
Bit rate : 110 kb/s
Channel(s) : 2 channels
Channel layout : L R
Sampling rate : 44.1 kHz
Frame rate : 43.066 FPS (1024 SPF)
Compression mode : Lossy
Delay relative to video : 2 ms
Stream size : 18.5 MiB (1%)
Language : Spanish
Default : No
Forced : No

Text #1
ID : 8
Format : ASS
Codec ID : S_TEXT/ASS
Codec ID/Info : Advanced Sub Station Alpha
Duration : 23 min 54 s
Bit rate : 161 b/s
Frame rate : 0.199 FPS
Count of elements : 286
Compression mode : Lossless
Stream size : 28.2 KiB (0%)
Language : Portuguese
Default : No
Forced : No

Text #2
ID : 9
Format : ASS
Codec ID : S_TEXT/ASS
Codec ID/Info : Advanced Sub Station Alpha
Duration : 23 min 25 s
Bit rate : 108 b/s
Frame rate : 0.214 FPS
Count of elements : 301
Compression mode : Lossless
Stream size : 18.7 KiB (0%)
Language : English
Default : No
Forced : No

Text #3
ID : 10
Format : ASS
Codec ID : S_TEXT/ASS
Codec ID/Info : Advanced Sub Station Alpha
Duration : 23 min 25 s
Bit rate : 103 b/s
Frame rate : 0.187 FPS
Count of elements : 263
Compression mode : Lossless
Stream size : 17.7 KiB (0%)
Language : French
Default : No
Forced : No

Text #4
ID : 11
Format : ASS
Codec ID : S_TEXT/ASS
Codec ID/Info : Advanced Sub Station Alpha
Duration : 23 min 27 s
Bit rate : 126 b/s
Frame rate : 0.171 FPS
Count of elements : 241
Compression mode : Lossless
Stream size : 21.7 KiB (0%)
Language : Spanish
Default : No
Forced : No
Karmezyn


Visite nosso fórum / Pedidos de Filmes / Pedidos de Séries

Os Cavaleiros do Zodíaco Bluray 1080p Bluray Remux 4K UHD 2160p HDR

Comentários

Entrar

Não tem uma conta? Cadastre-se
Inscrever-se

Já tem uma conta? Entrar