baixarbluray filmes e series em hd

Serial Experiments Lain

Serial Experiments Lain – Lain, uma garota tímida e introspectiva, mergulha no abismo cibernético, onde a tecnologia avançada e o esoterismo se encontram, desafiando as fronteiras entre o real e o virtual, enquanto a cidade digital se torna o palco de sua jornada de autodescoberta e conexão com o mundo espiritual.

Serial Experiments Lain

Título Original: Serial Experiments Lain
Qualidade: Bluray 1080p
Áudio: Dual Áudio
Legenda: Embutida (selecionável)
Tamanho: ~2,0 GB – Por Episódio

Temporada Completa – Serial Experiments Lain – Bluray 1080p

“Feche o mundo, abra o cyberspace.”

Serial Experiments Lain Bluray 1080p Bluray Remux 4K UHD 2160p HDR

Spoiler

Video
ID : 1
Format : AVC
Format/Info : Advanced Video Codec
Format profile : High@L4.1
Format settings : CABAC / 5 Ref Frames
Format settings, CABAC : Yes
Format settings, Reference fra : 5 frames
Codec ID : V_MPEG4/ISO/AVC
Duration : 23 min 56 s
Bit rate : 11.4 Mb/s
Width : 1 518 pixels
Height : 1 078 pixels
Display aspect ratio : 1.408
Frame rate mode : Constant
Frame rate : 23.976 (24000/1001) FPS
Color space : YUV
Chroma subsampling : 4:2:0
Bit depth : 8 bits
Scan type : Progressive
Bits/(Pixel*Frame) : 0.291
Stream size : 1.91 GiB (87%)
Writing library : x264 core 150 r2833 df79067
Encoding settings : cabac=1 / ref=5 / deblock=1:-3:-3 / analyse=0x3:0x133 / me=umh / subme=10 / psy=1 / psy_rd=0.50:0.00 / mixed_ref=1 / me_range=64 / chroma_me=1 / trellis=2 / 8x8dct=1 / cqm=0 / deadzone=21,11 / fast_pskip=0 / chroma_qp_offset=-2 / threads=18 / lookahead_threads=4 / sliced_threads=0 / nr=0 / decimate=0 / interlaced=0 / bluray_compat=0 / constrained_intra=0 / bframes=16 / b_pyramid=2 / b_adapt=2 / b_bias=0 / direct=3 / weightb=1 / open_gop=0 / weightp=2 / keyint=240 / keyint_min=23 / scenecut=40 / intra_refresh=0 / rc_lookahead=240 / rc=crf / mbtree=0 / crf=20.0 / qcomp=0.70 / qpmin=0 / qpmax=69 / qpstep=4 / vbv_maxrate=62500 / vbv_bufsize=78125 / crf_max=0.0 / nal_hrd=none / filler=0 / ip_ratio=1.30 / pb_ratio=1.20 / aq=3:0.90 / zones=0,44,crf=20,ipratio=1.4,pbratio=1.3,aq-strength=0.6,no-mbtree,no-mbtree/197,377,crf=20,ipratio=1.4,pbratio=1.3,aq-strength=0.6,no-mbtree/448,534,crf=20,ipratio=1.4,pbratio=1.3,aq-strength=0.6,no-mbtree/585,591,crf=20,ipratio=1.4,pbratio=1.3,aq-strength=0.6,no-mbtree/690,710,crf=20,ipratio=1.4,pbratio=1.3,aq-strength=0.6,no-mbtree/856,1047,crf=20,ipratio=1.4,pbratio=1.3,aq-strength=0.6,no-mbtree/1140,1175,crf=20,ipratio=1.4,pbratio=1.3,aq-strength=0.6,no-mbtree/1213,1244,crf=20,ipratio=1.4,pbratio=1.3,aq-strength=0.6,no-mbtree/1280,1398,crf=20,ipratio=1.4,pbratio=1.3,aq-strength=0.6,no-mbtree/1436,1532,crf=20,ipratio=1.4,pbratio=1.3,aq-strength=0.6,no-mbtree/1570,1595,crf=20,ipratio=1.4,pbratio=1.3,aq-strength=0.6,no-mbtree/1828,1903,crf=20,ipratio=1.4,pbratio=1.3,aq-strength=0.6,no-mbtree/1941,2025,crf=20,ipratio=1.4,pbratio=1.3,aq-strength=0.6,no-mbtree/2133,2150,crf=20,ipratio=1.4,pbratio=1.3,aq-strength=0.6,no-mbtree/2737,2805,crf=20,ipratio=1.4,pbratio=1.3,aq-strength=0.6,no-mbtree/3445,3588,crf=20,ipratio=1.4,pbratio=1.3,aq-strength=0.6,no-mbtree/17235,17792,crf=20,ipratio=1.4,pbratio=1.3,aq-strength=0.6,no-mbtree/17937,18001,crf=20,ipratio=1.4,pbratio=1.3,aq-strength=0.6,no-mbtree/19010,19250,crf=20,ipratio=1.4,pbratio=1.3,aq-strength=0.6,no-mbtree/22892,23036,crf=20,ipratio=1.4,pbratio=1.3,aq-strength=0.6,no-mbtree/23393,23512,crf=20,ipratio=1.4,pbratio=1.3,aq-strength=0.6,no-mbtree/29894,30085,crf=20,ipratio=1.4,pbratio=1.3,aq-strength=0.6,no-mbtree
Language : Japanese
Default : Yes
Forced : No

Audio #1
ID : 2
Format : FLAC
Format/Info : Free Lossless Audio Codec
Codec ID : A_FLAC
Duration : 23 min 56 s
Bit rate mode : Variable
Bit rate : 551 kb/s
Channel(s) : 2 channels
Channel layout : L R
Sampling rate : 48.0 kHz
Frame rate : 11.719 FPS (4096 SPF)
Bit depth : 16 bits
Compression mode : Lossless
Stream size : 94.4 MiB (4%)
Title : Português-BR {Karmezyn}
Writing library : libFLAC 1.3.3 (2019-08-04)
Language : Portuguese
Default : Yes
Forced : No
MD5 of the unencoded content : 5446C1449FF989015E02E98260400287

Audio #2
ID : 5
Format : FLAC
Format/Info : Free Lossless Audio Codec
Codec ID : A_FLAC
Duration : 23 min 56 s
Bit rate mode : Variable
Bit rate : 527 kb/s
Channel(s) : 2 channels
Channel layout : L R
Sampling rate : 48.0 kHz
Frame rate : 11.719 FPS (4096 SPF)
Bit depth : 16 bits
Compression mode : Lossless
Stream size : 90.2 MiB (4%)
Title : Japanese
Writing library : libFLAC 1.3.1 (2014-11-25)
Language : Japanese
Default : No
Forced : No
MD5 of the unencoded content : D8C48E1F9853555AB3E5534CC6A1EFE1

Audio #3
ID : 6
Format : FLAC
Format/Info : Free Lossless Audio Codec
Codec ID : A_FLAC
Duration : 23 min 56 s
Bit rate mode : Variable
Bit rate : 529 kb/s
Channel(s) : 2 channels
Channel layout : L R
Sampling rate : 48.0 kHz
Frame rate : 11.719 FPS (4096 SPF)
Bit depth : 16 bits
Compression mode : Lossless
Stream size : 90.6 MiB (4%)
Title : English
Writing library : libFLAC 1.3.1 (2014-11-25)
Language : English
Default : No
Forced : No
MD5 of the unencoded content : BB1E35DB5B65C4E341070612D487A521

Text #1
ID : 7
Format : ASS
Codec ID : S_TEXT/ASS
Codec ID/Info : Advanced Sub Station Alpha
Duration : 23 min 52 s
Bit rate : 1 546 b/s
Frame rate : 1.450 FPS
Count of elements : 2077
Compression mode : Lossless
Stream size : 270 KiB (0%)
Title : FORCED [Elite Fansub] {Karmezyn
Language : Portuguese
Default : Yes
Forced : Yes

Text #2
ID : 10
Format : ASS
Codec ID : S_TEXT/ASS
Codec ID/Info : Advanced Sub Station Alpha
Duration : 23 min 52 s
Bit rate : 1 574 b/s
Frame rate : 1.521 FPS
Count of elements : 2179
Compression mode : Lossless
Stream size : 275 KiB (0%)
Title : FULL [Elite Fansub] {Karmezyn
Language : Portuguese
Default : No
Forced : No

Text #3
ID : 11
Format : ASS
Codec ID : S_TEXT/ASS
Codec ID/Info : Advanced Sub Station Alpha
Duration : 23 min 52 s
Bit rate : 63 b/s
Frame rate : 0.141 FPS
Count of elements : 202
Compression mode : Lossless
Stream size : 11.1 KiB (0%)
Title : English
Language : English
Default : No
Forced : No

Text #4
ID : 12
Format : ASS
Codec ID : S_TEXT/ASS
Codec ID/Info : Advanced Sub Station Alpha
Duration : 23 min 52 s
Bit rate : 36 b/s
Frame rate : 0.069 FPS
Count of elements : 99
Compression mode : Lossless
Stream size : 6.36 KiB (0%)
Title : Songs + Signs
Language : English
Default : No
Forced : No

Menu
00:00:00.000 : en:Opening Theme
00:01:59.619 : en:Part A
00:12:15.401 : en:Part B
00:22:18.337 : en:Ending Theme
Karmezyn


Visite nosso fórum / Pedidos de Filmes / Pedidos de Séries

Serial Experiments Lain Bluray 1080p Bluray Remux 4K UHD 2160p HDR

Entrar

Não tem uma conta? Cadastre-se
Inscrever-se

Já tem uma conta? Entrar