baixarbluray filmes e series em hd

Liga da Justiça Sem Limites

Liga da Justiça Sem Limites – Liga da Justiça Sem Limites é uma série de animação americana produzida pela Warner Bros. Animation e exibida no Cartoon Network. Apresentando uma grande variedade de super-heróis do universo DC Comics, e especificamente baseado na equipe de super-heróis da Liga da Justiça, é uma sequência direta da série de animação anterior da Liga da Justiça.

Liga da Justiça Sem Limites

Título Original: Justice League Unlimited
Qualidade: Remux / WEB-DL
Áudio: Dual Áudio
Legenda: Embutida (selecionável)
Tamanho: ~3,5 GB – Por Episódio | ~1,4 GB – Por Episódio

1ª Temporada – Liga da Justiça: Sem Limites – Remux

1ª Temporada – Liga da Justiça: Sem Limites – WEB-DL 1080P
2ª Temporada – Liga da Justiça: Sem Limites – WEB-DL 1080P
3ª Temporada – Liga da Justiça: Sem Limites – WEB-DL 1080P

“O meu é maior que o seu.”

Liga da Justiça Sem Limites Bluray 1080p Bluray Remux 4K UHD 2160p HDR

Spoiler

Video
ID : 1
Format : AVC
Format/Info : Advanced Video Codec
Format profile : High@L4.1
Format settings : CABAC / 4 Ref Frames
Format settings, CABAC : Yes
Format settings, Reference fra : 4 frames
Format settings, Slice count : 4 slices per frame
Codec ID : V_MPEG4/ISO/AVC
Duration : 23 min 46 s
Bit rate mode : Variable
Bit rate : 18.3 Mb/s
Maximum bit rate : 38.0 Mb/s
Width : 1 920 pixels
Height : 1 080 pixels
Display aspect ratio : 16:9
Frame rate mode : Constant
Frame rate : 23.976 (24000/1001) FPS
Color space : YUV
Chroma subsampling : 4:2:0
Bit depth : 8 bits
Scan type : Progressive
Bits/(Pixel*Frame) : 0.368
Time code of first frame : 00:58:35:00
Stream size : 3.04 GiB (88%)
Language : English
Default : No
Forced : No

Audio #1
ID : 2
Format : AC-3
Format/Info : Audio Coding 3
Commercial name : Dolby Digital
Codec ID : A_AC3
Duration : 23 min 45 s
Bit rate mode : Constant
Bit rate : 384 kb/s
Channel(s) : 2 channels
Channel layout : L R
Sampling rate : 48.0 kHz
Frame rate : 31.250 FPS (1536 SPF)
Compression mode : Lossy
Stream size : 65.3 MiB (2%)
Language : Portuguese
Service kind : Complete Main
Default : Yes
Forced : No

Audio #2
ID : 3
Format : DTS XLL
Format/Info : Digital Theater Systems
Commercial name : DTS-HD Master Audio
Codec ID : A_DTS
Duration : 23 min 46 s
Bit rate mode : Variable
Bit rate : 2 170 kb/s
Channel(s) : 2 channels
Channel layout : L R
Sampling rate : 48.0 kHz
Frame rate : 93.750 FPS (512 SPF)
Bit depth : 24 bits
Compression mode : Lossless
Stream size : 369 MiB (10%)
Language : English
Default : No
Forced : No

Text #1
ID : 4
Format : UTF-8
Codec ID : S_TEXT/UTF8
Codec ID/Info : UTF-8 Plain Text
Duration : 23 min 0 s
Bit rate : 40 b/s
Frame rate : 0.123 FPS
Count of elements : 170
Stream size : 6.88 KiB (0%)
Title : Português-SRT (HMAX)
Language : Portuguese
Default : No
Forced : No

Text #2
ID : 5
Format : PGS
Muxing mode : zlib
Codec ID : S_HDMV/PGS
Codec ID/Info : Picture based subtitle format used on BDs/HD-DVDs
Duration : 23 min 12 s
Bit rate : 41.0 kb/s
Frame rate : 0.498 FPS
Count of elements : 694
Stream size : 6.82 MiB (0%)
Title : Inglês-SDH-PGS
Language : English
Default : No
Forced : No

Menu
00:00:00.000 : en:Chapter 01
00:03:42.305 : en:Chapter 02
00:12:09.812 : en:Chapter 03
00:15:44.401 : en:Chapter 04
00:23:15.852 : en:Chapter 05

Liga da Justiça Sem Limites Bluray 1080p Bluray Remux 4K UHD 2160p HDR

Spoiler

Video
ID : 1
Format : AVC
Format/Info : Advanced Video Codec
Format profile : High@L4
Format settings : CABAC / 4 Ref Frames
Format settings, CABAC : Yes
Format settings, Reference fra : 4 frames
Codec ID : V_MPEG4/ISO/AVC
Duration : 22 min 59 s
Bit rate mode : Variable
Bit rate : 8 250 kb/s
Maximum bit rate : 12.4 Mb/s
Width : 1 920 pixels
Height : 1 080 pixels
Display aspect ratio : 16:9
Frame rate mode : Constant
Frame rate : 23.976 (24000/1001) FPS
Color space : YUV
Chroma subsampling : 4:2:0
Bit depth : 8 bits
Scan type : Progressive
Bits/(Pixel*Frame) : 0.166
Stream size : 1.28 GiB (91%)
Writing library : x264 core 157 r2965 861cec4
Encoding settings : cabac=1 / ref=4 / deblock=1:0:0 / analyse=0x3:0x113 / me=hex / subme=7 / psy=1 / psy_rd=1.00:0.00 / mixed_ref=1 / me_range=16 / chroma_me=1 / trellis=1 / 8x8dct=1 / cqm=0 / deadzone=21,11 / fast_pskip=1 / chroma_qp_offset=-2 / threads=34 / lookahead_threads=5 / sliced_threads=0 / nr=0 / decimate=1 / interlaced=0 / bluray_compat=0 / constrained_intra=0 / bframes=3 / b_pyramid=2 / b_adapt=1 / b_bias=0 / direct=1 / weightb=1 / open_gop=0 / weightp=2 / keyint=96 / keyint_min=96 / scenecut=40 / intra_refresh=0 / rc_lookahead=40 / rc=2pass / mbtree=1 / bitrate=8250 / ratetol=1.0 / qcomp=0.60 / qpmin=0 / qpmax=69 / qpstep=4 / cplxblur=20.0 / qblur=0.5 / vbv_maxrate=12375 / vbv_bufsize=6187 / nal_hrd=vbr / filler=0 / ip_ratio=1.40 / aq=1:1.00
Default : Yes
Forced : No
Color range : Limited
Color primaries : BT.709
Transfer characteristics : BT.709
Matrix coefficients : BT.709

Audio #1
ID : 2
Format : AC-3
Format/Info : Audio Coding 3
Commercial name : Dolby Digital
Codec ID : A_AC3
Duration : 22 min 59 s
Bit rate mode : Constant
Bit rate : 384 kb/s
Channel(s) : 2 channels
Channel layout : L R
Sampling rate : 48.0 kHz
Frame rate : 31.250 FPS (1536 SPF)
Compression mode : Lossy
Stream size : 63.1 MiB (4%)
Title : Brazilian Portuguese
Language : Portuguese (BR)
Service kind : Complete Main
Default : Yes
Forced : No

Audio #2
ID : 3
Format : AC-3
Format/Info : Audio Coding 3
Commercial name : Dolby Digital
Codec ID : A_AC3
Duration : 22 min 59 s
Bit rate mode : Constant
Bit rate : 384 kb/s
Channel(s) : 2 channels
Channel layout : L R
Sampling rate : 48.0 kHz
Frame rate : 31.250 FPS (1536 SPF)
Compression mode : Lossy
Stream size : 63.1 MiB (4%)
Title : English
Language : English
Service kind : Complete Main
Default : No
Forced : No

Text #1
ID : 4
Format : UTF-8
Codec ID : S_TEXT/UTF8
Codec ID/Info : UTF-8 Plain Text
Duration : 6 min 56 s
Bit rate : 0 b/s
Frame rate : 0.005 FPS
Count of elements : 2
Stream size : 50.0 Bytes (0%)
Title : Forced
Language : Portuguese
Default : No
Forced : Yes

Text #2
ID : 5
Format : UTF-8
Codec ID : S_TEXT/UTF8
Codec ID/Info : UTF-8 Plain Text
Duration : 22 min 23 s
Bit rate : 51 b/s
Frame rate : 0.214 FPS
Count of elements : 287
Stream size : 8.44 KiB (0%)
Language : Portuguese
Default : No
Forced : No

Text #3
ID : 6
Format : UTF-8
Codec ID : S_TEXT/UTF8
Codec ID/Info : UTF-8 Plain Text
Duration : 23 min 26 s
Bit rate : 68 b/s
Frame rate : 0.299 FPS
Count of elements : 421
Stream size : 11.7 KiB (0%)
Title : SDH
Language : English
Default : No
Forced : No

Menu
00:00:35.118 : en:Intro
Karmezyn


Visite nosso fórum / Pedidos de Filmes / Pedidos de Séries

Liga da Justiça Sem Limites Bluray 1080p Bluray Remux 4K UHD 2160p HDR

Comentários

Entrar

Não tem uma conta? Cadastre-se
Inscrever-se

Já tem uma conta? Entrar