baixarbluray filmes e series em hd

Steins;Gate

Steins;Gate – Rintaro é um auto-proclamado cientista louco que acredita que uma organização internacional está conspirando para remodelar o mundo de acordo com seus próprios interesses. Ele e seu amigo Itaru inadvertidamente criam um dispositivo capaz de enviar mensagens para o passado. A descoberta e experimentação deste instrumento torna-se o catalisador de alterações fundamentais para o presente. Alheio das consequências de suas ações, Rintaro e seus amigos acabam criando modificações de proporções graves. Agora ele deve tentar encontrar uma maneira de voltar a linha do tempo para o mais próximo possível do original, para salvar os preciosos membros do laboratório.

Steins;Gate

Título Original: Steins;Gate
Qualidade: Remux
Áudio: Dual Áudio
Legenda: Embutida (selecionável)
Tamanho: ~6.5 GB – Por Episódio

Temporada Completa – (2011) Steins;Gate – Remux
OVA – (2012) Steins;Gate – 25 Poriomania Egoista [OVA] – Remux
OVA – (2015) Steins;Gate – 23 (β) Abra o Link Perdido -Divida por Zero- [OVA] – Remux

“Se eu dissesse que existe infinitas linhas do tempo
E que essa linhas são moldadas conforme o que faz
E se eu te dissesse que nesse exato momento
Pode haver o outro você não fazendo o que faz”

Steins;Gate Bluray 1080p Bluray Remux 4K UHD 2160p HDR

Spoiler

Video
ID : 1
Format : AVC
Format/Info : Advanced Video Codec
Format profile : High@L4.1
Format settings : CABAC / 4 Ref Frames
Format settings, CABAC : Yes
Format settings, Reference fra : 4 frames
Codec ID : V_MPEG4/ISO/AVC
Duration : 23 min 55 s
Bit rate mode : Variable
Bit rate : 37.6 Mb/s
Maximum bit rate : 40.0 Mb/s
Width : 1 920 pixels
Height : 1 080 pixels
Display aspect ratio : 16:9
Frame rate mode : Constant
Frame rate : 23.976 (24000/1001) FPS
Color space : YUV
Chroma subsampling : 4:2:0
Bit depth : 8 bits
Scan type : Progressive
Bits/(Pixel*Frame) : 0.756
Stream size : 6.29 GiB (97%)
Title : ITA BD (Dynit) 1080p
Language : Italian
Default : Yes
Forced : No

Audio #1
ID : 2
Format : FLAC
Format/Info : Free Lossless Audio Codec
Codec ID : A_FLAC
Duration : 23 min 56 s
Bit rate mode : Variable
Bit rate : 531 kb/s
Channel(s) : 2 channels
Channel layout : L R
Sampling rate : 48.0 kHz
Frame rate : 11.719 FPS (4096 SPF)
Bit depth : 16 bits
Compression mode : Lossless
Stream size : 91.0 MiB (1%)
Title : Dublagem [Funimation] By Kaze
Writing library : libFLAC 1.3.1 (UTC 2014-11-25)
Language : Portuguese
Default : Yes
Forced : Yes
MD5 of the unencoded content : 66A43F85E0D44157E92645A7AC493711

Audio #2
ID : 3
Format : FLAC
Format/Info : Free Lossless Audio Codec
Codec ID : A_FLAC
Duration : 23 min 57 s
Bit rate mode : Variable
Bit rate : 614 kb/s
Channel(s) : 2 channels
Channel layout : L R
Sampling rate : 48.0 kHz
Frame rate : 11.719 FPS (4096 SPF)
Bit depth : 24 bits
Compression mode : Lossless
Stream size : 105 MiB (2%)
Title : Japanese 2.0 FLAC (JPBD)
Writing library : libFLAC 1.2.1 (UTC 2007-09-17)
Language : Japanese
Default : No
Forced : No
MD5 of the unencoded content : 979446E04192774C7DC33BF68D1EBF68

Text #1
ID : 4
Format : ASS
Codec ID : S_TEXT/ASS
Codec ID/Info : Advanced Sub Station Alpha
Duration : 22 min 31 s
Bit rate : 153 b/s
Frame rate : 0.161 FPS
Count of elements : 217
Compression mode : Lossless
Stream size : 25.3 KiB (0%)
Title : ptBR FORCED [Avalon Fansub]
Language : Portuguese
Default : Yes
Forced : Yes

Text #2
ID : 5
Format : ASS
Codec ID : S_TEXT/ASS
Codec ID/Info : Advanced Sub Station Alpha
Duration : 23 min 32 s
Bit rate : 270 b/s
Frame rate : 0.408 FPS
Count of elements : 576
Compression mode : Lossless
Stream size : 46.6 KiB (0%)
Title : Brazilian (Avalon Fansub)
Language : Portuguese (BR)
Default : No
Forced : No

Menu
00:00:00.000 : en:Prologue
00:01:04.648 : en:Part 1
00:10:34.050 : en:Opening
00:12:03.973 : en:Part 2
00:22:10.955 : en:Ending
00:23:40.919 : en:Preview


Visite nosso fórum / Pedidos de Filmes / Pedidos de Séries

Steins;Gate Bluray 1080p Bluray Remux 4K UHD 2160p HDR

Comentários

Entrar

Não tem uma conta? Cadastre-se
Inscrever-se

Já tem uma conta? Entrar